Поиск

(Hard Bop, Latin Jazz, World Fusion) Ray Vega - Boperation - 1999, FLAC (image+.cue), lossless

(Hard Bop, Latin Jazz, World Fusion) Ray Vega - Boperation - 1999, FLAC (image+.cue), lossless
Треклист:
Ray Vega - Boperation
Жанр: Hard Bop, Latin Jazz, World Fusion
Страна-производитель диска: США
Год издания: 1999
Издатель (лейбл): Concord Picante
Номер по каталогу: CCD-4867-2
Аудиокодек: FLAC (*.flac)
Тип рипа: image+.cue
Битрейт аудио: lossless
Продолжительность: 64:19
Источник (релизер): dreadbull (hqshare)
Наличие сканов в содержимом раздачи: да
Треклист:
01. Hub-Tones /Hubbard/ 4:46
02. Lotus Blossom /Coslow, Johnston/ 4:30
03. Boperation /McGhee, Navarro/ 5:39
04. Birk's Works /Gillespie/ 5:26
05. Dark Shadows /Henderson/ 6:00
06. Daahoud /Brown/ 4:30
07. Blue in Green/Four /Davis/ 6:03
08. Stepping Stone /Shaw/ 6:04
09. Tangerine /Mercer, Schertzinger/ 4:07
10. Whisper Not /Golson/ 4:55
11. Social Call /Gryce/ 5:49
12. Mr. Kenyatta /Morgan/ 6:12
 
Лог создания рипа
Exact Audio Copy V1.0 beta 3 from 29. August 2011
EAC extraction logfile from 3. April 2012, 17:00
Ray Vega / Boperation
Used drive : ASUS DRW-22B2L Adapter: 0 ID: 1
Read mode : Secure
Utilize accurate stream : Yes
Defeat audio cache : Yes
Make use of C2 pointers : No
Read offset correction : 6
Overread into Lead-In and Lead-Out : No
Fill up missing offset samples with silence : Yes
Delete leading and trailing silent blocks : No
Null samples used in CRC calculations : Yes
Used interface : Native Win32 interface for Win NT & 2000
Used output format : User Defined Encoder
Selected bitrate : 128 kBit/s
Quality : High
Add ID3 tag : Yes
Command line compressor : C:\Program Files\FLAC\flac.exe
Additional command line options : -8 -V -T "ARTIST=%artist%" -T "TITLE=%title%" -T "ALBUM=%albumtitle%" -T "DATE=%year%" -T "TRACKNUMBER=%tracknr%" -T "GENRE=%genre%" -T "PERFORMER=%albuminterpret%" -T "COMPOSER=%composer%" %haslyrics%--tag-from-file=LYRICS="%lyricsfile%"%haslyrics% -T "ALBUMARTIST=%albumartist%" -T "DISCNUMBER=%cdnumber%" -T "TOTALDISCS=%totalcds%" -T "TOTALTRACKS=%numtracks%" -T "COMMENT=%comment%" %source% -o %dest%
TOC of the extracted CD
Track | Start | Length | Start sector | End sector
---------------------------------------------------------
1 | 0:00.00 | 4:48.15 | 0 | 21614
2 | 4:48.15 | 4:31.72 | 21615 | 42011
3 | 9:20.12 | 5:41.05 | 42012 | 67591
4 | 15:01.17 | 5:26.13 | 67592 | 92054
5 | 20:27.30 | 6:00.00 | 92055 | 119054
6 | 26:27.30 | 4:31.65 | 119055 | 139444
7 | 30:59.20 | 6:05.72 | 139445 | 166891
8 | 37:05.17 | 6:06.03 | 166892 | 194344
9 | 43:11.20 | 4:09.02 | 194345 | 213021
10 | 47:20.22 | 4:56.00 | 213022 | 235221
11 | 52:16.22 | 5:51.00 | 235222 | 261546
12 | 58:07.22 | 6:12.48 | 261547 | 289494
Range status and errors
Selected range
Filename D:\Donkey Files\Ray Vega - Boperation (1999, Concord Picante) [eac-flac-scans] byDrBull\Ray Vega - Boperation.wav
Peak level 100.0 %
Extraction speed 6.5 X
Range quality 100.0 %
Test CRC 13F5C6FD
Copy CRC 13F5C6FD
Copy OK
No errors occurred
AccurateRip summary
Track 1 not present in database
Track 2 not present in database
Track 3 not present in database
Track 4 not present in database
Track 5 not present in database
Track 6 not present in database
Track 7 not present in database
Track 8 not present in database
Track 9 not present in database
Track 10 not present in database
Track 11 not present in database
Track 12 not present in database
None of the tracks are present in the AccurateRip database
End of status report
==== Log checksum 637E74DE314B68E2BB33D8E82F5869D0C43B39F0A1D3A7EDB7D42AFC5215E863 ====
 
Содержание индексной карты (.CUE)
REM GENRE Jazz
REM DATE 1999
REM DISCID B20F130C
REM COMMENT "ExactAudioCopy v1.0b3"
PERFORMER "Ray Vega"
TITLE "Boperation"
FILE "Ray Vega - Boperation.wav" WAVE
TRACK 01 AUDIO
TITLE "High Tones"
PERFORMER "Ray Vega"
INDEX 01 00:00:00
TRACK 02 AUDIO
TITLE "Lotus Blossom"
PERFORMER "Ray Vega"
INDEX 00 04:46:37
INDEX 01 04:48:15
TRACK 03 AUDIO
TITLE "Boperation"
PERFORMER "Ray Vega"
INDEX 00 09:18:67
INDEX 01 09:20:12
TRACK 04 AUDIO
TITLE "Birk's Work"
PERFORMER "Ray Vega"
INDEX 00 14:59:67
INDEX 01 15:01:17
TRACK 05 AUDIO
TITLE "Dark Shadows"
PERFORMER "Ray Vega"
INDEX 01 20:27:30
TRACK 06 AUDIO
TITLE "Daahoud"
PERFORMER "Ray Vega"
INDEX 01 26:27:30
TRACK 07 AUDIO
TITLE "Blue In Green - Four"
PERFORMER "Ray Vega"
INDEX 00 30:57:22
INDEX 01 30:59:20
TRACK 08 AUDIO
TITLE "Stepping Stone"
PERFORMER "Ray Vega"
INDEX 00 37:03:00
INDEX 01 37:05:17
TRACK 09 AUDIO
TITLE "Tangerine"
PERFORMER "Ray Vega"
INDEX 00 43:09:65
INDEX 01 43:11:20
TRACK 10 AUDIO
TITLE "Whisper Not"
PERFORMER "Ray Vega"
INDEX 00 47:18:60
INDEX 01 47:20:22
TRACK 11 AUDIO
TITLE "Social Call"
PERFORMER "Ray Vega"
INDEX 00 52:15:07
INDEX 01 52:16:22
TRACK 12 AUDIO
TITLE "Mr. Kanyatta"
PERFORMER "Ray Vega"
INDEX 00 58:05:70
INDEX 01 58:07:22
 
Review by Alex Henderson
Ray Vega pays tribute to 13 fellow trumpeters on Boperation, offering Latin jazz interpretations of songs that were, in most cases, written by the trumpeters themselves. All of the trumpeters that Vega salutes became well known after World War II and made their mark playing bop, cool, or post-bop; the Puerto Rican New Yorker doesn't embrace anything by pre-bop icons like Louis Armstrong, Bix Beiderbecke, and Harry James, but, rather, turns his attention to the works of post-swing improvisers ranging from Dizzy Gillespie, Art Farmer, and the Fats Navarro/Howard McGhee team to Clifford Brown and his admirers, including Freddie Hubbard, Lee Morgan, Woody Shaw, and Donald Byrd. Although Vega is very much a hard bopper, he acknowledges the Cool School with a Miles Davis medley that includes "Blue in Green" and "Four" (a gem that, according to many jazz experts, was actually written by Eddie "Cleanhead" Vinson, although Davis was given credit) and a lyrical version of "Tangerine" that was inspired by Chet Baker. Vega should be applauded for recognizing Baker's greatness; too many "Young Lions" of the 1980s and 1990s have failed to realize just how captivating he could be. Some jazz fans may complain about the fact that Vega doesn't salute either pre-bop or avant-garde trumpeters, but then, he never said that Boperation was meant to tell the entire history of jazz trumpet, flügelhorn, and cornet playing. If everyone from Bunny Berigan, Charlie Shavers, and King Oliver to Don Cherry, Lester Bowie, and Hannibal Peterson were also included, Vega would have needed to record several CDs instead of simply one. Vega deserves credit for making Boperation a concept album that is pleasing, if less than essential.
 
Состав
Ray Vega - trumpet (#1-9,11,12), flugelhorn (#10), agogo (#4), chekeré (#1,10), percussion (#5), arranger (#1-12);
Roger Byam - tenor (#1,2,4-6,8,11,12), alto (#3,9) & soprano (#7) sax;
Igor Atalita - piano;
Bernie Miñoso - bass;
Vince Cherico - drums (#1-12), percussion (#4,5);
Wilson "Chembo" Corniel - congas (#1-3,5,6,8,9,11,12), güiro (#3), percussion (#4,5), batá (#7), chekeré & guataca (#10), quinto & wood block (#12);
guests:
Steve Khan - acoustic (#5,12) & electric (#1,5,10) guitars, arranger (#10);
Joe Locke - vibraphone (#5,8,10), arranger (#10);
Nick Phillips - keyboards (#4,7).
Rec.: Apr 13-17, 1999, at Showplace Studios, Dover, NJ.
06:02
271
Нет комментариев. Ваш будет первым!