Поиск

(Ethnic, Klezmer) Roby Lakatos & Ensemble - “Klezmer Karma” - 2006, APE (image+.cue), lossless

(Ethnic, Klezmer) Roby Lakatos & Ensemble - “Klezmer Karma” - 2006, APE (image+.cue), lossless
Треклист:
Roby Lakatos & Ensemble - “Klezmer Karma”
Жанр: Ethnic, Klezmer
Год выпуска диска: 2006
Производитель диска: pure music sprl, Belgium
Аудио кодек: APE
Тип рипа: image+.cue
Битрейт аудио: lossless
Продолжительность: 70:58
Трэклист:
1. Klezmer Suite N1 (Javori/Lakatos) - 3:07
2. Yiddishe Mame (Yellen/Pollack) - 7:23
3. Glick (Fuld) - 5:22
4. A-10450 (Lakatos) - 4:16
5. Neshumele (Trad.) - 4:39
6. Papirossen Suite (Yablekon) - 5:29
7. Klezmer Suite N2 (Javori/Lakatos) - 5:37
8. Empty Pictures (Lakatos) - 3:29
9. Ani Maamin (Trad.) - 4:31
10. Dizzy Fingers (Lakatos) - 4:26
11. Romania (Lebedeff) - 3:50
12. Hatikvah (Erez) - 5:10
13. Budapest (Trad.) - 2:38
14. Yiddishe Hassene (Lebedeff) - 6:41
15. Klezmer Csardas (Lakatos) - 4:03
Roby Lakatos - violin
The Franz Liszt Chamber Orchestra
featuring Myriam Fuks & Aldo Granato
recorded: 2006
 
Отчёт EAC
Exact Audio Copy V0.99 prebeta 4 from 23. January 2008
EAC extraction logfile from 14. August 2009, 14:32
Roby Lakatos & Ensemble / Klezmer Karma
Used drive : _NEC DVD_RW ND-2510A Adapter: 1 ID: 1
Read mode : Secure
Utilize accurate stream : Yes
Defeat audio cache : Yes
Make use of C2 pointers : No
Read offset correction : 48
Overread into Lead-In and Lead-Out : No
Fill up missing offset samples with silence : Yes
Delete leading and trailing silent blocks : No
Null samples used in CRC calculations : Yes
Used interface : Native Win32 interface for Win NT & 2000
Used output format : Internal WAV Routines
Sample format : 44.100 Hz; 16 Bit; Stereo
TOC of the extracted CD
Track | Start | Length | Start sector | End sector
---------------------------------------------------------
1 | 0:00.00 | 3:07.04 | 0 | 14028
2 | 3:07.04 | 7:23.63 | 14029 | 47316
3 | 10:30.67 | 5:24.44 | 47317 | 71660
4 | 15:55.36 | 4:16.12 | 71661 | 90872
5 | 20:11.48 | 4:41.17 | 90873 | 111964
6 | 24:52.65 | 5:30.22 | 111965 | 136736
7 | 30:23.12 | 5:38.24 | 136737 | 162110
8 | 36:01.36 | 3:31.09 | 162111 | 177944
9 | 39:32.45 | 4:30.71 | 177945 | 198265
10 | 44:03.41 | 4:26.25 | 198266 | 218240
11 | 48:29.66 | 3:51.03 | 218241 | 235568
12 | 52:20.69 | 5:10.71 | 235569 | 258889
13 | 57:31.65 | 2:39.40 | 258890 | 270854
14 | 60:11.30 | 6:42.21 | 270855 | 301025
15 | 66:53.51 | 4:04.24 | 301026 | 319349
Range status and errors
Selected range
Filename C:\Documents and Settings\IGOR\Bureau\Roby Lakatos & Ensemble - Klezmer Karma.wav
Peak level 99.8 %
Range quality 100.0 %
Copy CRC 8A19A70E
Copy OK
No errors occurred
AccurateRip summary
Track 1 accurately ripped (confidence 3) [763F0730]
Track 2 accurately ripped (confidence 3) [A0DFBDCD]
Track 3 accurately ripped (confidence 3) [102F074F]
Track 4 accurately ripped (confidence 3) [CAB30D48]
Track 5 accurately ripped (confidence 3) [1FBC68F1]
Track 6 accurately ripped (confidence 3) [5DFC5892]
Track 7 accurately ripped (confidence 3) [910BF695]
Track 8 accurately ripped (confidence 3) [591F019D]
Track 9 accurately ripped (confidence 3) [16DBE081]
Track 10 accurately ripped (confidence 3) [4080B029]
Track 11 accurately ripped (confidence 3) [B049B594]
Track 12 accurately ripped (confidence 3) [6E52B8CA]
Track 13 accurately ripped (confidence 3) [63512455]
Track 14 accurately ripped (confidence 3) [01E7C355]
Track 15 accurately ripped (confidence 3) [A8E1A4BE]
All tracks accurately ripped
End of status report
 
Отчёт auCDtect
auCDtect: CD records authenticity detector, version 0.8.2
Copyright (c) 2004 Oleg Berngardt. All rights reserved.
Copyright (c) 2004 Alexander Djourik. All rights reserved.
------------------------------------------------------------
Processing file: [Roby Lakatos & Ensemble - Klezmer Karma.wav]
Detected average hi-boundary frequency: 2.047886e+004 Hz
Detected average lo-boundary frequency: 1.395088e+004 Hz
Detected average hi-cut frequency: 2.160538e+004 Hz
Detected average lo-cut frequency: 1.430139e+004 Hz
Maximum probablis boundary frequency: 2.189100e+004 Hz
Coefficient of nonlinearity of a phase: 5.762375e-001
First order smothness: 4.603774e-001
Second order smothness: 7.481895e-001
------------------------------------------------------------
This track looks like CDDA with probability 100%
Download available for power users only.
07:24
192
Нет комментариев. Ваш будет первым!