Поиск

(World Fusion, Post-Bop) Collin Walcott - Cloud Dance (ECM) - 1976, FLAC (tracks+.cue), lossless

(World Fusion, Post-Bop) Collin Walcott - Cloud Dance (ECM) - 1976, FLAC (tracks+.cue), lossless
Треклист:
Collin Walcott - Cloud Dance
Жанр: World Fusion, Post-Bop
Страна-производитель диска: Германия
Год издания диска: 2008
Издатель (лейбл): ECM Touchstones Series
Номер по каталогу: ECM 1062 (1779929)
Аудиокодек: FLAC
Тип рипа: tracks+.cue
Битрейт аудио: lossless
Продолжительность: 39:33
Источник (релизер): Wildstrings (hqshare)
Наличие сканов в содержимом раздачи: да
Треклист:
01. Margueritte (Walcott) - 8:33
02. Prancing (Walcott) - 3:24
03. Night Glider (Walcott) - 6:41
04. Scimitar (Walcott-Abercrombie) - 2:46
05. Vadana (Holland) - 7:01
06. Eastern Song (Walcott) - 2:35
07. Padma (Walcott-Abercrombie) - 2:47
08. Cloud Dance (Walcott) - 5:47
Состав:
Collin Walcott - sitar, tabla
John Abercrombie - guitar
Dave Holland - double-bass
Jack DeJohnette - drums
Recorded at Tonstudio Bauer, Ludwigsburg in March 1975.
 
Лог создания рипа
Exact Audio Copy V0.99 prebeta 4 from 23. January 2008
EAC extraction logfile from 14. October 2008, 8:20
Collin Walcott / Cloud Dance
Used drive : PBDS DVD+-RW DH-16W1S Adapter: 1 ID: 0
Read mode : Secure
Utilize accurate stream : Yes
Defeat audio cache : Yes
Make use of C2 pointers : No
Read offset correction : 6
Overread into Lead-In and Lead-Out : No
Fill up missing offset samples with silence : Yes
Delete leading and trailing silent blocks : No
Null samples used in CRC calculations : Yes
Used interface : Installed external ASPI interface
Gap handling : Appended to previous track
Used output format : User Defined Encoder
Selected bitrate : 128 kBit/s
Quality : High
Add ID3 tag : No
Command line compressor : E:\Program Files\FLAC\flac.exe
Additional command line options : -8 -V -T "ARTIST=%a" -T "TITLE=%t" -T "ALBUM=%g" -T "DATE=%y" -T "TRACKNUMBER=%n" -T "GENRE=%m" -T "COMMENT=EAC 0.99pb4, FLAC 1.7.1" %s
TOC of the extracted CD
Track | Start | Length | Start sector | End sector
---------------------------------------------------------
1 | 0:00.32 | 8:32.53 | 32 | 38484
2 | 8:33.10 | 3:24.17 | 38485 | 53801
3 | 11:57.27 | 6:40.50 | 53802 | 83851
4 | 18:38.02 | 2:46.05 | 83852 | 96306
5 | 21:24.07 | 7:00.50 | 96307 | 127856
6 | 28:24.57 | 2:34.38 | 127857 | 139444
7 | 30:59.20 | 2:47.07 | 139445 | 151976
8 | 33:46.27 | 5:47.23 | 151977 | 178024
Track 1
Filename F:\RIPS\Collin Walcott - Cloud Dance (1976) [FLAC] {ECM 1062}\01 - Margueritte.wav
Pre-gap length 0:00:02.42
Peak level 67.0 %
Track quality 99.9 %
Test CRC 5B6EA394
Copy CRC 5B6EA394
Cannot be verified as accurate (confidence 1) [68D50267], AccurateRip returned [84880E30]
Copy OK
Track 2
Filename F:\RIPS\Collin Walcott - Cloud Dance (1976) [FLAC] {ECM 1062}\02 - Prancing.wav
Pre-gap length 0:00:02.66
Peak level 81.5 %
Track quality 99.9 %
Test CRC 6C2C110E
Copy CRC 6C2C110E
Cannot be verified as accurate (confidence 1) [E3BE844B], AccurateRip returned [B16693EF]
Copy OK
Track 3
Filename F:\RIPS\Collin Walcott - Cloud Dance (1976) [FLAC] {ECM 1062}\03 - Night Glider.wav
Pre-gap length 0:00:02.02
Peak level 54.7 %
Track quality 100.0 %
Test CRC 340DD22F
Copy CRC 340DD22F
Cannot be verified as accurate (confidence 1) [E4714A87], AccurateRip returned [2626BD58]
Copy OK
Track 4
Filename F:\RIPS\Collin Walcott - Cloud Dance (1976) [FLAC] {ECM 1062}\04 - Scimitar.wav
Pre-gap length 0:00:04.49
Peak level 63.8 %
Track quality 100.0 %
Test CRC FBE47B2F
Copy CRC FBE47B2F
Cannot be verified as accurate (confidence 1) [868CA5EB], AccurateRip returned [E9A5E619]
Copy OK
Track 5
Filename F:\RIPS\Collin Walcott - Cloud Dance (1976) [FLAC] {ECM 1062}\05 - Vadana.wav
Pre-gap length 0:00:03.76
Peak level 62.0 %
Track quality 100.0 %
Test CRC FFD6D959
Copy CRC FFD6D959
Cannot be verified as accurate (confidence 1) [6F92E155], AccurateRip returned [EA54AAE0]
Copy OK
Track 6
Filename F:\RIPS\Collin Walcott - Cloud Dance (1976) [FLAC] {ECM 1062}\06 - Eastern Song.wav
Pre-gap length 0:00:02.82
Peak level 60.7 %
Track quality 100.0 %
Test CRC 918F452E
Copy CRC 918F452E
Cannot be verified as accurate (confidence 1) [C685684C], AccurateRip returned [86B3E624]
Copy OK
Track 7
Filename F:\RIPS\Collin Walcott - Cloud Dance (1976) [FLAC] {ECM 1062}\07 - Padma.wav
Pre-gap length 0:00:02.60
Peak level 59.1 %
Track quality 100.0 %
Test CRC E35BC9C1
Copy CRC E35BC9C1
Cannot be verified as accurate (confidence 1) [1FCF3F3D], AccurateRip returned [1FE64264]
Copy OK
Track 8
Filename F:\RIPS\Collin Walcott - Cloud Dance (1976) [FLAC] {ECM 1062}\08 - Cloud Dance.wav
Pre-gap length 0:00:02.96
Peak level 85.0 %
Track quality 100.0 %
Test CRC DA6181FB
Copy CRC DA6181FB
Cannot be verified as accurate (confidence 1) [A00A0CFE], AccurateRip returned [9E29C072]
Copy OK
No tracks could be verified as accurate
You may have a different pressing from the one(s) in the database
No errors occurred
End of status report
 
Содержание индексной карты (.CUE)
REM GENRE Jazz
REM DATE 1976
REM DISCID 5D094508
REM COMMENT "ExactAudioCopy v0.99pb4"
PERFORMER "Collin Walcott"
TITLE "Cloud Dance"
FILE "01 - Margueritte.wav" WAVE
TRACK 01 AUDIO
TITLE "Margueritte"
PERFORMER "Collin Walcott"
PREGAP 00:00:32
INDEX 01 00:00:00
TRACK 02 AUDIO
TITLE "Prancing"
PERFORMER "Collin Walcott"
INDEX 00 08:30:03
FILE "02 - Prancing.wav" WAVE
INDEX 01 00:00:00
TRACK 03 AUDIO
TITLE "Night Glider"
PERFORMER "Collin Walcott"
INDEX 00 03:22:15
FILE "03 - Night Glider.wav" WAVE
INDEX 01 00:00:00
TRACK 04 AUDIO
TITLE "Scimitar"
PERFORMER "Collin Walcott"
INDEX 00 06:36:13
FILE "04 - Scimitar.wav" WAVE
INDEX 01 00:00:00
TRACK 05 AUDIO
TITLE "Vadana"
PERFORMER "Collin Walcott"
INDEX 00 02:42:23
FILE "05 - Vadana.wav" WAVE
INDEX 01 00:00:00
TRACK 06 AUDIO
TITLE "Eastern Song"
PERFORMER "Collin Walcott"
INDEX 00 06:57:63
FILE "06 - Eastern Song.wav" WAVE
INDEX 01 00:00:00
TRACK 07 AUDIO
TITLE "Padma"
PERFORMER "Collin Walcott"
INDEX 00 02:31:68
FILE "07 - Padma.wav" WAVE
INDEX 01 00:00:00
TRACK 08 AUDIO
TITLE "Cloud Dance"
PERFORMER "Collin Walcott"
INDEX 00 02:44:10
FILE "08 - Cloud Dance.wav" WAVE
INDEX 01 00:00:00
 
Отчет CUETools
[CUETools log; Date: 17.07.2013 12:50:56; Version: 2.1.4]
Pregap length 00:00:32.
[CTDB TOCID: lY0kP2Wfvv4HjFubrcwkyowYBIM-] found.
Track | CTDB Status
1 | (3/3) Accurately ripped
2 | (2/3) Accurately ripped, or (1/3) differs in 12 samples @00:00:31
3 | (2/3) Accurately ripped, or (1/3) differs in 10 samples @00:00:31
4 | (2/3) Accurately ripped, or (1/3) differs in 12 samples @00:00:31
5 | (2/3) Accurately ripped, or (1/3) differs in 19 samples @00:00:31
6 | (3/3) Accurately ripped
7 | (3/3) Accurately ripped
8 | (2/3) Accurately ripped, or (1/3) differs in 15 samples @00:00:31
[AccurateRip ID: 000d4596-0055b409-5d094508] found.
Track [ CRC | V2 ] Status
01 [68d50267|a0f01b17] (18+05/41) Accurately ripped
02 [e3be844b|a5856939] (18+05/42) Accurately ripped
03 [e4714a87|5aff6d74] (18+05/40) Accurately ripped
04 [868ca5eb|496287be] (18+05/41) Accurately ripped
05 [6f92e155|3d29b2a9] (18+05/41) Accurately ripped
06 [c685684c|a6fc490b] (18+04/40) Accurately ripped
07 [1fcf3f3d|c65aa4f9] (18+05/41) Accurately ripped
08 [a00a0cfe|056c3a59] (18+05/41) Accurately ripped
Offsetted by 667:
01 [ebcfdcca] (08/41) Accurately ripped
02 [16974c57] (08/42) Accurately ripped
03 [1313eeb9] (08/40) Accurately ripped
04 [16fb68ca] (08/41) Accurately ripped
05 [e4abbcaf] (08/41) Accurately ripped
06 [2f866331] (08/40) Accurately ripped
07 [c87f3129] (08/41) Accurately ripped
08 [a5377025] (08/41) Accurately ripped
Offsetted by 2077:
01 [84880e30] (10/41) Accurately ripped
02 [b16693ef] (11/42) Accurately ripped
03 [2626bd58] (09/40) Accurately ripped
04 [e9a5e619] (10/41) Accurately ripped
05 [ea54aae0] (10/41) Accurately ripped
06 [86b3e624] (10/40) Accurately ripped
07 [1fe64264] (10/41) Accurately ripped
08 [9e29c072] (10/41) Accurately ripped
Track Peak [ CRC32 ] [W/O NULL] [ LOG ]
-- 85,0 [4BE5D36E] [FA5BFCC1]
01 67,0 [5B6EA394] [C5D98418] CRC32
02 81,5 [6C2C110E] [ECFF06D1] CRC32
03 54,7 [340DD22F] [CCE97323] CRC32
04 63,8 [FBE47B2F] [FC394BDA] CRC32
05 62,0 [FFD6D959] [D621C51D] CRC32
06 60,7 [918F452E] [26C9BF69] CRC32
07 59,1 [E35BC9C1] [52C4C55D] CRC32
08 85,0 [DA6181FB] [7CA31D61] CRC32
 
Об альбоме (сборнике)
The late, great Collin Walcott made his proper ECM debut on Cloud Dance (after an appearance three years earlier on Trios/Solos), where he was joined by the Gateway trinity—John Abercrombie, Dave Holland, and Jack DeJohnette—for one of his most powerful albums ever to grace ECM’s vinyl (and later, digital, thanks to a vital Touchstone series reissue) grooves. The marrow-warming twang of Walcott’s sitar sets up the opening “Margueritte” to be a long raga, when suddenly Abercrombie’s electric appears in kind, beckoning a chill entourage of bass and drums and touching off a pair of graceful solos from Abercrombie and Holland. The album’s remainder is fleshed out by a variety of intimate configurations. “Night Glider” and “Vadana” both feature guitar, bass, and sitar, the latter two instruments feeding beautifully off one another, the guitar weaving in and out where it may. The two duets between Walcott and Holland, however, are really where this album gilds its worth. Our frontman lays out plush carpets of tabla and sitar on “Prancing” and “Eastern Song,” respectively, over which Holland takes stock of every variation of pattern and thread count. The second of these pieces, while the briefest of the album, is also one of its most mesmerizing. Contrary to what the titles might have us believe, these are all genuinely realized pieces where the word “exotic” is but another puff of smoke in the breeze. And so, the heavy tabla and shawm-like guitar of “Scimitar” describes not the weapon wielded in the hands of countless white actors in uninformed filmic productions, but rather an exploration of the object on its own terms, tracing forms and histories, battles and silences alike, with due abandon. So, too, with the final and title cut that brings DeJohnette back into the mix for an animated closer.
The telephone wires on the cover are like the strings of some large instrument, with the sky as its sound box. Its clouds don’t so much dance as perform, caressing endless waves of voices careening through the ether. The joy of Cloud Dance is that it makes those voices intelligible. Fans of Oregon, of which Walcott was of course an integral part, need look no further for likeminded contemplation.
08:25
301
Нет комментариев. Ваш будет первым!