Поиск

(Jazz, World, Fusion) Oregon - Beyond Words - 1995, FLAC (image+.cue), lossless

(Jazz, World, Fusion) Oregon - Beyond Words - 1995, FLAC (image+.cue), lossless
Треклист:
Oregon - Beyond Words
Жанр: Jazz, World, Fusion
Год выпуска диска: 1995
Производитель диска: West Germany
Аудио кодек: FLAC
Тип рипа: image+.cue
Битрейт аудио: lossless
Продолжительность: 1:11:51
Трэклист:
01. Rewind (4:34)
02. Ecotopia (7:45)
03. Green and Golden (5:04)
04. Pepe Linque (5:16)
05. Les Douzilles (9:38)
06. The Silence of a Candle (5:19)
07. Sicilian Walk (3:13)
08. Leather Cats (9:04)
09. Witchi-Tai-To (8:11)
10. Silver Suite I (4:20)
11. Silver Suite II (3:20)
12. Silver Suite III (6:08)
 
скрытый текст
Exact Audio Copy V0.99 prebeta 4 from 23. January 2008
Отчёт EAC об извлечении, выполненном 14. августа 2009, 8:53
Oregon / Beyond Words
Дисковод: Optiarc DVD RW AD-7200S Adapter: 2 ID: 0
Режим чтения : Достоверность
Использование точного потока : Да
Отключение кэша аудио : Да
Использование указателей C2 : Нет
Коррекция смещения при чтении : 48
Способность читать области Lead-in и Lead-out : Нет
Заполнение пропущенных сэмплов тишиной : Да
Удаление блоков с тишиной в начале и конце : Нет
При вычислениях CRC использовались нулевые сэмплы : Да
Интерфейс : Встроенный Win32-интерфейс для Win NT/2000
Выходной формат : Внутренние WAV-операции
Формат сэмплов : 44.100 Гц; 16 бит; стерео
TOC извлечённого CD
Трек | Старт | Длительность | Начальный сектор | Конечный сектор
---------------------------------------------------------------------
1 | 0:00.30 | 4:34.28 | 30 | 20607
2 | 4:34.58 | 7:44.42 | 20608 | 55449
3 | 12:19.25 | 5:03.72 | 55450 | 78246
4 | 17:23.22 | 5:16.11 | 78247 | 101957
5 | 22:39.33 | 9:37.51 | 101958 | 145283
6 | 32:17.09 | 5:19.11 | 145284 | 169219
7 | 37:36.20 | 3:13.02 | 169220 | 183696
8 | 40:49.22 | 9:03.61 | 183697 | 224482
9 | 49:53.08 | 8:10.56 | 224483 | 261288
10 | 58:03.64 | 4:20.05 | 261289 | 280793
11 | 62:23.69 | 3:19.43 | 280794 | 295761
12 | 65:43.37 | 6:08.19 | 295762 | 323380
Характеристики диапазона извлечения и сообщения об ошибках
Выбранный диапазон
Имя файла E:\audio\!temp\Oregon - Beyond Words\Oregon - Beyond Words.wav
Пиковый уровень 99.9 %
Качество диапазона 100.0 %
CRC копии ABF53496
Копирование... OK
Ошибок не произошло
AccurateRip: сводка
Трек 1 точность не определена (достоверность 9) [86910A3D], AccurateRip вернул [5B0B4EEC]
Трек 2 точность не определена (достоверность 9) [B5EAD9F1], AccurateRip вернул [419DE893]
Трек 3 точность не определена (достоверность 9) [6A7F9E20], AccurateRip вернул [9471DF9B]
Трек 4 точность не определена (достоверность 8) [A7B3013C], AccurateRip вернул [99A8A24C]
Трек 5 точность не определена (достоверность 8) [8FDCE161], AccurateRip вернул [3BB98574]
Трек 6 точность не определена (достоверность 9) [668FAF1D], AccurateRip вернул [CDF6C7F0]
Трек 7 точность не определена (достоверность 9) [339FB563], AccurateRip вернул [CD639F66]
Трек 8 точность не определена (достоверность 9) [8A42D87F], AccurateRip вернул [11E9D279]
Трек 9 точность не определена (достоверность 9) [58048409], AccurateRip вернул [B3FEDBFE]
Трек 10 точность не определена (достоверность 8) [54EB1C0B], AccurateRip вернул [E58B1C8B]
Трек 11 точность не определена (достоверность 9) [99E209CC], AccurateRip вернул [DDC800A6]
Трек 12 точность не определена (достоверность 9) [927946D2], AccurateRip вернул [E6282633]
Ни один трек не прошёл проверки на точность
В вашей базе может быть иной вариант штамповки диска
Конец отчёта
Download available for power users only.
07:23
252
Нет комментариев. Ваш будет первым!