Поиск

(Ethnic Jazz, Latin Jazz) Laurindo Almeida & Baden Powell - Brasil Guitar Magic! - 1999, FLAC (tracks+.cue), lossless

(Ethnic Jazz, Latin Jazz) Laurindo Almeida & Baden Powell - Brasil Guitar Magic! - 1999, FLAC (tracks+.cue), lossless
Треклист:
•Laurindo Almeida & Baden Powell - Brasil Guitar Magic!•
Жанр: Ethnic Jazz, Latin Jazz
Страна-производитель диска: Россия
Год издания диска: 1999
Аудиокодек: FLAC (*.flac)
Тип рипа: tracks+.cue
Битрейт аудио: lossless
Продолжительность: 01:00:43
Источник (релизер): Рип с диска.
Наличие сканов в содержимом раздачи: да
Треклист:
01. Samba Medley
02. O Barquinho
03. The Busy Bee
04. Canto Do Ossanha
05. Samba Triste
06. Escadoo
07. Air On A G-String
08. Dorival
09. Garota De Ipanema
10. Berimbau
11. Euridice
12. Deve Ser Amor
13. Choro Para Metronome
14. Berceuse A Jussara
15. Adagio
16. Prelude
17. Samba En Preludio
 
Лог создания рипа
Exact Audio Copy V1.0 beta 3 from 29. August 2011
Отчёт EAC об извлечении, выполненном 1. января 2012, 18:10
Laurindo Almeida & Baden Powell / Brazil Guitar Magic
Дисковод: TSSTcorpCDDVDW SH-S223C Adapter: 5 ID: 0
Режим чтения : Достоверность
Использование точного потока : Да
Отключение кэша аудио : Да
Использование указателей C2 : Нет
Коррекция смещения при чтении : 697
Способность читать области Lead-in и Lead-out : Нет
Заполнение пропущенных сэмплов тишиной : Да
Удаление блоков с тишиной в начале и конце : Нет
При вычислениях CRC использовались нулевые сэмплы : Да
Интерфейс : Установленный внешний ASPI-интерфейс
Обработка зазоров : Добавлено к предыдущему треку
Выходной формат : Пользовательский кодировщик
Выбранный битрейт : 128 kBit/s
Качество : Высокий
Добавление ID3-тега : Нет
Утилита сжатия : C:\Program Files\Exact Audio Copy\Flac\flac.exe
Дополнительные параметры : -V -8 -T "Genre=%genre%" -T "Artist=%artist%" -T "Title=%title%" -T "Album=%albumtitle%" -T "Date=%year%" -T "Tracknumber=%tracknr%" -T "Comment=%comment%" %source%
TOC извлечённого CD
Трек | Старт | Длительность | Начальный сектор | Конечный сектор
---------------------------------------------------------------------
1 | 0:00.00 | 5:20.10 | 0 | 24009
2 | 5:20.10 | 4:08.72 | 24010 | 42681
3 | 9:29.07 | 1:19.73 | 42682 | 48679
4 | 10:49.05 | 5:31.20 | 48680 | 73524
5 | 16:20.25 | 3:19.35 | 73525 | 88484
6 | 19:39.60 | 3:06.05 | 88485 | 102439
7 | 22:45.65 | 4:51.70 | 102440 | 124334
8 | 27:37.60 | 5:05.12 | 124335 | 147221
9 | 32:42.72 | 2:59.33 | 147222 | 160679
10 | 35:42.30 | 3:04.20 | 160680 | 174499
11 | 38:46.50 | 3:02.60 | 174500 | 188209
12 | 41:49.35 | 3:53.07 | 188210 | 205691
13 | 45:42.42 | 2:57.05 | 205692 | 218971
14 | 48:39.47 | 2:33.13 | 218972 | 230459
15 | 51:12.60 | 3:07.72 | 230460 | 244556
16 | 54:20.57 | 2:50.40 | 244557 | 257346
17 | 57:11.22 | 3:31.68 | 257347 | 273239
Трек 1
Имя файла C:\Шахматы\1999.Laurindo Almeida & Baden Powell - Brasil Guitar Magic!\01. Samba Medley.wav
Длина предзазора 0:00:02.00
Пиковый уровень 99.9 %
Скорость извлечения 2.1 X
Качество трека 100.0 %
CRC теста 82BD82D7
CRC копии 82BD82D7
Точность не определена (достоверность 3) [62D26172], AccurateRip вернул [B3967A33] (AR v2)
Копирование... OK
Трек 2
Имя файла C:\Шахматы\1999.Laurindo Almeida & Baden Powell - Brasil Guitar Magic!\02. O Barquinho.wav
Длина предзазора 0:00:02.60
Пиковый уровень 99.9 %
Скорость извлечения 2.1 X
Качество трека 99.9 %
CRC теста 83824328
CRC копии 83824328
Точность не определена (достоверность 3) [A1D6E1BA], AccurateRip вернул [DAC0C27F] (AR v2)
Копирование... OK
Трек 3
Имя файла C:\Шахматы\1999.Laurindo Almeida & Baden Powell - Brasil Guitar Magic!\03. The Busy Bee.wav
Длина предзазора 0:00:01.15
Пиковый уровень 99.9 %
Скорость извлечения 1.9 X
Качество трека 100.0 %
CRC теста 45C3DCB9
CRC копии 45C3DCB9
Точность не определена (достоверность 3) [5156C163], AccurateRip вернул [A7799DA4] (AR v2)
Копирование... OK
Трек 4
Имя файла C:\Шахматы\1999.Laurindo Almeida & Baden Powell - Brasil Guitar Magic!\04. Canto Do Ossanha.wav
Длина предзазора 0:00:01.73
Пиковый уровень 99.9 %
Скорость извлечения 2.7 X
Качество трека 100.0 %
CRC теста 534B492D
CRC копии 534B492D
Точность не определена (достоверность 3) [1F33E4F2], AccurateRip вернул [76701901] (AR v2)
Копирование... OK
Трек 5
Имя файла C:\Шахматы\1999.Laurindo Almeida & Baden Powell - Brasil Guitar Magic!\05. Samba Triste.wav
Длина предзазора 0:00:01.68
Пиковый уровень 99.9 %
Скорость извлечения 2.7 X
Качество трека 100.0 %
CRC теста C7BA7354
CRC копии C7BA7354
Точность не определена (достоверность 3) [70D3031C], AccurateRip вернул [DF29488F] (AR v2)
Копирование... OK
Трек 6
Имя файла C:\Шахматы\1999.Laurindo Almeida & Baden Powell - Brasil Guitar Magic!\06. Escadoo.wav
Длина предзазора 0:00:01.58
Пиковый уровень 99.9 %
Скорость извлечения 2.8 X
Качество трека 100.0 %
CRC теста 7311E5E7
CRC копии 7311E5E7
Точность не определена (достоверность 3) [28F82C63], AccurateRip вернул [EF12BA65] (AR v2)
Копирование... OK
Трек 7
Имя файла C:\Шахматы\1999.Laurindo Almeida & Baden Powell - Brasil Guitar Magic!\07. Air On A G-String.wav
Длина предзазора 0:00:02.23
Пиковый уровень 99.9 %
Скорость извлечения 3.2 X
Качество трека 100.0 %
CRC теста 13331E00
CRC копии 13331E00
Точность не определена (достоверность 3) [06D3716A], AccurateRip вернул [599C51DB] (AR v2)
Копирование... OK
Трек 8
Имя файла C:\Шахматы\1999.Laurindo Almeida & Baden Powell - Brasil Guitar Magic!\08. Dorival.wav
Длина предзазора 0:00:01.43
Пиковый уровень 99.9 %
Скорость извлечения 3.4 X
Качество трека 100.0 %
CRC теста B0ABE9CC
CRC копии B0ABE9CC
Точность не определена (достоверность 3) [AF157083], AccurateRip вернул [A9EF99A6] (AR v2)
Копирование... OK
Трек 9
Имя файла C:\Шахматы\1999.Laurindo Almeida & Baden Powell - Brasil Guitar Magic!\09. Garota De Ipanema.wav
Длина предзазора 0:00:01.65
Пиковый уровень 99.9 %
Скорость извлечения 3.3 X
Качество трека 100.0 %
CRC теста D2B061EF
CRC копии D2B061EF
Точность не определена (достоверность 3) [DDAB622C], AccurateRip вернул [24E49910] (AR v2)
Копирование... OK
Трек 10
Имя файла C:\Шахматы\1999.Laurindo Almeida & Baden Powell - Brasil Guitar Magic!\10. Berimbau.wav
Длина предзазора 0:00:01.63
Пиковый уровень 99.9 %
Скорость извлечения 2.8 X
Качество трека 99.9 %
CRC теста 6D53FCBE
CRC копии 6D53FCBE
Точность не определена (достоверность 3) [A023E235], AccurateRip вернул [0CA8E349] (AR v2)
Копирование... OK
Трек 11
Имя файла C:\Шахматы\1999.Laurindo Almeida & Baden Powell - Brasil Guitar Magic!\11. Euridice.wav
Длина предзазора 0:00:01.48
Пиковый уровень 99.9 %
Скорость извлечения 3.4 X
Качество трека 100.0 %
CRC теста 5A59AD43
CRC копии 5A59AD43
Точность не определена (достоверность 3) [7D6B536A], AccurateRip вернул [195FDAB0] (AR v2)
Копирование... OK
Трек 12
Имя файла C:\Шахматы\1999.Laurindo Almeida & Baden Powell - Brasil Guitar Magic!\12. Deve Ser Amor.wav
Длина предзазора 0:00:02.05
Пиковый уровень 99.9 %
Скорость извлечения 3.7 X
Качество трека 100.0 %
CRC теста 7B7DB79F
CRC копии 7B7DB79F
Точность не определена (достоверность 3) [F41E1A6D], AccurateRip вернул [7B7945E6] (AR v2)
Копирование... OK
Трек 13
Имя файла C:\Шахматы\1999.Laurindo Almeida & Baden Powell - Brasil Guitar Magic!\13. Choro Para Metronome.wav
Длина предзазора 0:00:02.00
Пиковый уровень 99.9 %
Скорость извлечения 3.6 X
Качество трека 100.0 %
CRC теста 6AE3E05B
CRC копии 6AE3E05B
Точность не определена (достоверность 3) [DB4BC797], AccurateRip вернул [8008CCA5] (AR v2)
Копирование... OK
Трек 14
Имя файла C:\Шахматы\1999.Laurindo Almeida & Baden Powell - Brasil Guitar Magic!\14. Berceuse A Jussara.wav
Длина предзазора 0:00:02.05
Пиковый уровень 99.9 %
Скорость извлечения 3.5 X
Качество трека 100.0 %
CRC теста 9193C049
CRC копии 9193C049
Точность не определена (достоверность 3) [637A08A3], AccurateRip вернул [EA5CEEC1] (AR v2)
Копирование... OK
Трек 15
Имя файла C:\Шахматы\1999.Laurindo Almeida & Baden Powell - Brasil Guitar Magic!\15. Adagio.wav
Длина предзазора 0:00:02.13
Пиковый уровень 99.9 %
Скорость извлечения 3.8 X
Качество трека 100.0 %
CRC теста AC545CE9
CRC копии AC545CE9
Точность не определена (достоверность 3) [4851DCE7], AccurateRip вернул [6AD18B91] (AR v2)
Копирование... OK
Трек 16
Имя файла C:\Шахматы\1999.Laurindo Almeida & Baden Powell - Brasil Guitar Magic!\16. Prelude.wav
Длина предзазора 0:00:01.57
Пиковый уровень 99.9 %
Скорость извлечения 3.8 X
Качество трека 100.0 %
CRC теста 396FF0A6
CRC копии 396FF0A6
Точность не определена (достоверность 3) [8A7F27C8], AccurateRip вернул [88C76CA4] (AR v2)
Копирование... OK
Трек 17
Имя файла C:\Шахматы\1999.Laurindo Almeida & Baden Powell - Brasil Guitar Magic!\17. Samba En Preludio.wav
Длина предзазора 0:00:01.70
Пиковый уровень 99.9 %
Скорость извлечения 4.1 X
Качество трека 100.0 %
CRC теста 0B33574A
CRC копии 0B33574A
Точность не определена (достоверность 3) [5C3B4AA3], AccurateRip вернул [B6ABA9F2] (AR v2)
Копирование... OK
Ни один трек не прошёл проверки на точность
В вашей базе может быть иной вариант штамповки диска
Ошибок не произошло
Конец отчёта
==== Контрольная сумма отчёта 9CCF1EAB99D23A8ADC74098EA767771E4CBE1888DD7700A83BE671480294F308 ====
 
Содержание индексной карты (.CUE)
REM GENRE Jazz
REM DATE 1999
REM DISCID E40E3B11
REM COMMENT "ExactAudioCopy v1.0b3"
PERFORMER "Laurindo Almeida & Baden Powell"
TITLE "Brazil Guitar Magic"
FILE "01. Samba Medley.wav" WAVE
TRACK 01 AUDIO
TITLE "Samba Medley"
PERFORMER "Laurindo Almeida & Baden Powell"
INDEX 01 00:00:00
TRACK 02 AUDIO
TITLE "O Barquinho"
PERFORMER "Laurindo Almeida & Baden Powell"
INDEX 00 05:17:25
FILE "02. O Barquinho.wav" WAVE
INDEX 01 00:00:00
TRACK 03 AUDIO
TITLE "The Busy Bee"
PERFORMER "Laurindo Almeida & Baden Powell"
INDEX 00 04:07:57
FILE "03. The Busy Bee.wav" WAVE
INDEX 01 00:00:00
TRACK 04 AUDIO
TITLE "Canto Do Ossanha"
PERFORMER "Laurindo Almeida & Baden Powell"
INDEX 00 01:18:00
FILE "04. Canto Do Ossanha.wav" WAVE
INDEX 01 00:00:00
TRACK 05 AUDIO
TITLE "Samba Triste"
PERFORMER "Laurindo Almeida & Baden Powell"
INDEX 00 05:29:27
FILE "05. Samba Triste.wav" WAVE
INDEX 01 00:00:00
TRACK 06 AUDIO
TITLE "Escadoo"
PERFORMER "Laurindo Almeida & Baden Powell"
INDEX 00 03:17:52
FILE "06. Escadoo.wav" WAVE
INDEX 01 00:00:00
TRACK 07 AUDIO
TITLE "Air On A G-String"
PERFORMER "Laurindo Almeida & Baden Powell"
INDEX 00 03:03:57
FILE "07. Air On A G-String.wav" WAVE
INDEX 01 00:00:00
TRACK 08 AUDIO
TITLE "Dorival"
PERFORMER "Laurindo Almeida & Baden Powell"
INDEX 00 04:50:27
FILE "08. Dorival.wav" WAVE
INDEX 01 00:00:00
TRACK 09 AUDIO
TITLE "Garota De Ipanema"
PERFORMER "Laurindo Almeida & Baden Powell"
INDEX 00 05:03:22
FILE "09. Garota De Ipanema.wav" WAVE
INDEX 01 00:00:00
TRACK 10 AUDIO
TITLE "Berimbau"
PERFORMER "Laurindo Almeida & Baden Powell"
INDEX 00 02:57:45
FILE "10. Berimbau.wav" WAVE
INDEX 01 00:00:00
TRACK 11 AUDIO
TITLE "Euridice"
PERFORMER "Laurindo Almeida & Baden Powell"
INDEX 00 03:02:47
FILE "11. Euridice.wav" WAVE
INDEX 01 00:00:00
TRACK 12 AUDIO
TITLE "Deve Ser Amor"
PERFORMER "Laurindo Almeida & Baden Powell"
INDEX 00 03:00:55
FILE "12. Deve Ser Amor.wav" WAVE
INDEX 01 00:00:00
TRACK 13 AUDIO
TITLE "Choro Para Metronome"
PERFORMER "Laurindo Almeida & Baden Powell"
INDEX 00 03:51:07
FILE "13. Choro Para Metronome.wav" WAVE
INDEX 01 00:00:00
TRACK 14 AUDIO
TITLE "Berceuse A Jussara"
PERFORMER "Laurindo Almeida & Baden Powell"
INDEX 00 02:55:00
FILE "14. Berceuse A Jussara.wav" WAVE
INDEX 01 00:00:00
TRACK 15 AUDIO
TITLE "Adagio"
PERFORMER "Laurindo Almeida & Baden Powell"
INDEX 00 02:31:00
FILE "15. Adagio.wav" WAVE
INDEX 01 00:00:00
TRACK 16 AUDIO
TITLE "Prelude"
PERFORMER "Laurindo Almeida & Baden Powell"
INDEX 00 03:06:15
FILE "16. Prelude.wav" WAVE
INDEX 01 00:00:00
TRACK 17 AUDIO
TITLE "Samba En Preludio"
PERFORMER "Laurindo Almeida & Baden Powell"
INDEX 00 02:48:45
FILE "17. Samba En Preludio.wav" WAVE
INDEX 01 00:00:00
По всем вопросам пишите личное сообщение пользователю M0p94ok.
01:40
282
Нет комментариев. Ваш будет первым!