Вы используете незарегистрированную версию компонента "Вкладки"!

Поиск

(Brazilian Jazz, Latin Jazz) Laurindo Almeida - Chamber Jazz - 2000, FLAC (tracks+.cue), lossless

(Brazilian Jazz, Latin Jazz) Laurindo Almeida - Chamber Jazz - 2000, FLAC (tracks+.cue), lossless
Треклист:
•Laurindo Almeida - Chamber Jazz•
Жанр: Brazilian Jazz, Latin Jazz
Страна-производитель диска: Россия
Год издания диска: 2000
Аудиокодек: FLAC (*.flac)
Тип рипа: tracks+.cue
Битрейт аудио: lossless
Продолжительность: 00:40:18
Источник (релизер): Рип с диска.
Наличие сканов в содержимом раздачи: да
Треклист:
01. Dingue le Bangue
02. Unaccistomed Bach
03. Odeon
04. Bourree and Double
05. Melissa
06. You and I (Voce e Eu)
07. Claire de Lune Samba
08. Chopin a la Breve
09. Turuna
 
Лог создания рипа
Exact Audio Copy V1.0 beta 3 from 29. August 2011
Отчёт EAC об извлечении, выполненном 2. января 2012, 17:22
Laurindo Almeida / Chamber Jazz
Дисковод: TSSTcorpCDDVDW SH-S223C Adapter: 5 ID: 0
Режим чтения : Достоверность
Использование точного потока : Да
Отключение кэша аудио : Да
Использование указателей C2 : Нет
Коррекция смещения при чтении : 697
Способность читать области Lead-in и Lead-out : Нет
Заполнение пропущенных сэмплов тишиной : Да
Удаление блоков с тишиной в начале и конце : Нет
При вычислениях CRC использовались нулевые сэмплы : Да
Интерфейс : Установленный внешний ASPI-интерфейс
Обработка зазоров : Добавлено к предыдущему треку
Выходной формат : Пользовательский кодировщик
Выбранный битрейт : 128 kBit/s
Качество : Высокий
Добавление ID3-тега : Нет
Утилита сжатия : C:\Program Files\Exact Audio Copy\Flac\flac.exe
Дополнительные параметры : -V -8 -T "Genre=%genre%" -T "Artist=%artist%" -T "Title=%title%" -T "Album=%albumtitle%" -T "Date=%year%" -T "Tracknumber=%tracknr%" -T "Comment=%comment%" %source%
TOC извлечённого CD
Трек | Старт | Длительность | Начальный сектор | Конечный сектор
---------------------------------------------------------------------
1 | 0:00.00 | 4:20.30 | 0 | 19529
2 | 4:20.30 | 7:23.60 | 19530 | 52814
3 | 11:44.15 | 2:07.60 | 52815 | 62399
4 | 13:52.00 | 4:01.50 | 62400 | 80524
5 | 17:53.50 | 3:28.25 | 80525 | 96149
6 | 21:22.00 | 5:16.60 | 96150 | 119909
7 | 26:38.60 | 5:06.57 | 119910 | 142916
8 | 31:45.42 | 4:15.60 | 142917 | 162101
9 | 36:01.27 | 4:17.30 | 162102 | 181406
Трек 1
Имя файла C:\Шахматы\2000.Laurindo Almeida - Chamber Jazz\01. Dingue le Bangue.wav
Длина предзазора 0:00:02.00
Пиковый уровень 100.0 %
Скорость извлечения 2.0 X
Качество трека 100.0 %
CRC теста 888B1C8E
CRC копии 888B1C8E
Точное извлечение (достоверность 2) [34FD20C3] (AR v1)
Копирование... OK
Трек 2
Имя файла C:\Шахматы\2000.Laurindo Almeida - Chamber Jazz\02. Unaccistomed Bach.wav
Длина предзазора 0:00:04.58
Пиковый уровень 98.5 %
Скорость извлечения 2.4 X
Качество трека 100.0 %
CRC теста 11C1D898
CRC копии 11C1D898
Точное извлечение (достоверность 2) [A7B7F7F4] (AR v1)
Копирование... OK
Трек 3
Имя файла C:\Шахматы\2000.Laurindo Almeida - Chamber Jazz\03. Odeon.wav
Длина предзазора 0:00:06.15
Пиковый уровень 84.2 %
Скорость извлечения 1.8 X
Качество трека 99.9 %
CRC теста 04633D77
CRC копии 04633D77
Точное извлечение (достоверность 2) [EE5F9A5D] (AR v1)
Копирование... OK
Трек 4
Имя файла C:\Шахматы\2000.Laurindo Almeida - Chamber Jazz\04. Bourree and Double.wav
Длина предзазора 0:00:05.58
Пиковый уровень 98.4 %
Скорость извлечения 2.3 X
Качество трека 99.9 %
CRC теста 29BE3A2E
CRC копии 29BE3A2E
Точное извлечение (достоверность 2) [5D2EFB28] (AR v1)
Копирование... OK
Трек 5
Имя файла C:\Шахматы\2000.Laurindo Almeida - Chamber Jazz\05. Melissa.wav
Длина предзазора 0:00:06.25
Пиковый уровень 72.2 %
Скорость извлечения 2.7 X
Качество трека 100.0 %
CRC теста E8D306C7
CRC копии E8D306C7
Точное извлечение (достоверность 2) [3703C981] (AR v1)
Копирование... OK
Трек 6
Имя файла C:\Шахматы\2000.Laurindo Almeida - Chamber Jazz\06. You and I (Voce e Eu).wav
Длина предзазора 0:00:06.20
Пиковый уровень 99.3 %
Скорость извлечения 3.1 X
Качество трека 100.0 %
CRC теста 424F5480
CRC копии 424F5480
Точное извлечение (достоверность 2) [7689816D] (AR v1)
Копирование... OK
Трек 7
Имя файла C:\Шахматы\2000.Laurindo Almeida - Chamber Jazz\07. Claire de Lune Samba.wav
Длина предзазора 0:00:03.50
Пиковый уровень 58.8 %
Скорость извлечения 2.9 X
Качество трека 99.9 %
CRC теста 51A8F91B
CRC копии 51A8F91B
Точное извлечение (достоверность 2) [872CD9AD] (AR v1)
Копирование... OK
Трек 8
Имя файла C:\Шахматы\2000.Laurindo Almeida - Chamber Jazz\08. Chopin a la Breve.wav
Длина предзазора 0:00:07.55
Пиковый уровень 89.7 %
Скорость извлечения 3.4 X
Качество трека 100.0 %
CRC теста 4A862ED8
CRC копии 4A862ED8
Точное извлечение (достоверность 2) [18E77D8A] (AR v1)
Копирование... OK
Трек 9
Имя файла C:\Шахматы\2000.Laurindo Almeida - Chamber Jazz\09. Turuna.wav
Длина предзазора 0:00:06.05
Пиковый уровень 88.0 %
Скорость извлечения 3.5 X
Качество трека 100.0 %
CRC теста B061011D
CRC копии B061011D
Точное извлечение (достоверность 2) [8AA48324] (AR v1)
Копирование... OK
Все треки извлечены точно
Ошибок не произошло
Конец отчёта
==== Контрольная сумма отчёта B6DD445AEFC1041EBE6F6C09BA01124F7D4314E051C1C1A439C14A3DE6100496 ====
 
Содержание индексной карты (.CUE)
REM GENRE "Jazz - Brazilian Jazz"
REM DATE 2000
REM DISCID 68097209
REM COMMENT "ExactAudioCopy v1.0b3"
PERFORMER "Laurindo Almeida"
TITLE "Chamber Jazz"
FILE "01. Dingue le Bangue.wav" WAVE
TRACK 01 AUDIO
TITLE "Dingue le Bangue"
PERFORMER "Laurindo Almeida"
INDEX 01 00:00:00
TRACK 02 AUDIO
TITLE "Unaccistomed Bach"
PERFORMER "Laurindo Almeida"
INDEX 00 04:15:47
FILE "02. Unaccistomed Bach.wav" WAVE
INDEX 01 00:00:00
TRACK 03 AUDIO
TITLE "Odeon"
PERFORMER "Laurindo Almeida"
INDEX 00 07:17:45
FILE "03. Odeon.wav" WAVE
INDEX 01 00:00:00
TRACK 04 AUDIO
TITLE "Bourree and Double"
PERFORMER "Laurindo Almeida"
INDEX 00 02:02:02
FILE "04. Bourree and Double.wav" WAVE
INDEX 01 00:00:00
TRACK 05 AUDIO
TITLE "Melissa"
PERFORMER "Laurindo Almeida"
INDEX 00 03:55:25
FILE "05. Melissa.wav" WAVE
INDEX 01 00:00:00
TRACK 06 AUDIO
TITLE "You and I (Voce e Eu)"
PERFORMER "Laurindo Almeida"
INDEX 00 03:22:05
FILE "06. You and I (Voce e Eu).wav" WAVE
INDEX 01 00:00:00
TRACK 07 AUDIO
TITLE "Claire de Lune Samba"
PERFORMER "Laurindo Almeida"
INDEX 00 05:13:10
FILE "07. Claire de Lune Samba.wav" WAVE
INDEX 01 00:00:00
TRACK 08 AUDIO
TITLE "Chopin a la Breve"
PERFORMER "Laurindo Almeida"
INDEX 00 04:59:02
FILE "08. Chopin a la Breve.wav" WAVE
INDEX 01 00:00:00
TRACK 09 AUDIO
TITLE "Turuna"
PERFORMER "Laurindo Almeida"
INDEX 00 04:09:55
FILE "09. Turuna.wav" WAVE
INDEX 01 00:00:00
Any questions - support@pro-jazz.com. Есть вопросы - support@pro-jazz.com
01:41
228
Нет комментариев. Ваш будет первым!