Поиск

(Afro-Cuban Jazz, Bop, Latin Jazz) Paquito D'Rivera & James Moody - Who's Smoking?! - 1991, FLAC (tracks+.cue), lossless

(Afro-Cuban Jazz, Bop, Latin Jazz) Paquito D'Rivera & James Moody - Who's Smoking?! - 1991, FLAC (tracks+.cue), lossless
Треклист:
Paquito D'Rivera & James Moody - Who's Smoking?!
Жанр: Afro-Cuban Jazz, Bop, Latin Jazz
Страна-производитель диска: Германия
Год издания диска: 1991
Издатель (лейбл): Candid
Номер по каталогу: CCD79523
Аудиокодек: FLAC (*.flac)
Тип рипа: tracks+.cue
Битрейт аудио: lossless
Продолжительность: 59:37
Источник (релизер): Dannyboyni (what)
Наличие сканов в содержимом раздачи: да
Треклист:
01. Who's Smoking?! (D'Rivera-Roditi) - 8:02
02. Giant Steps (Coltrane) - 7:13
03. Irremediablemente Solo (Incurably Alone) (Munoz) - 8:04
04. Linda's Moody (Roditi) - 4:48
05. Desert Storm (D'Rivera) - 8:41
06. Nuestro Bolero (Lopez) - 4:58
07. I Mean You (Monk) - 5:46
08. You Got It, Diz! (Perez) - 6:35
09. Out of Nowhere (Heyman-Green) - 5:27
Состав:
Paquito D'Rivera - alto saxophone, soprano saxophone, clarinet
Claudio Roditi - trumpet, flugelhorn
Mark Morganelli – flugelhorn
James Moody - tenor saxophone (#1,2,4,8)
Danilo Perez, Pedrito Lopez (#4,6) – piano
Harvie Swartz – bass
Al Foster - drums
Recorded at BMG Studio, New York on May 21 & 22, 1991.
 
Лог создания рипа
Exact Audio Copy V0.99 prebeta 5 from 4. May 2009
EAC extraction logfile from 29. July 2010, 14:27
Paquito D'Rivera with James Moody / Who's Smoking?
Used drive : PIONEER DVD-RW DVR-216D Adapter: 2 ID: 0
Read mode : Secure
Utilize accurate stream : Yes
Defeat audio cache : Yes
Make use of C2 pointers : No
Read offset correction : 96
Overread into Lead-In and Lead-Out : No
Fill up missing offset samples with silence : Yes
Delete leading and trailing silent blocks : No
Null samples used in CRC calculations : Yes
Used interface : Native Win32 interface for Win NT & 2000
Gap handling : Appended to previous track
Used output format : User Defined Encoder
Selected bitrate : 128 kBit/s
Quality : High
Add ID3 tag : No
Command line compressor : C:\Program Files (x86)\Exact Audio Copy\Flac\flac.exe
Additional command line options : -V -8 -T "artist=%a" -T "title=%t" -T "album=%g" -T "date=%y" -T "tracknumber=%n" -T "genre=%m" %s
TOC of the extracted CD
Track | Start | Length | Start sector | End sector
---------------------------------------------------------
1 | 0:00.00 | 8:02.37 | 0 | 36186
2 | 8:02.37 | 7:13.58 | 36187 | 68719
3 | 15:16.20 | 8:04.27 | 68720 | 105046
4 | 23:20.47 | 4:48.23 | 105047 | 126669
5 | 28:08.70 | 8:41.35 | 126670 | 165779
6 | 36:50.30 | 4:58.10 | 165780 | 188139
7 | 41:48.40 | 5:46.00 | 188140 | 214089
8 | 47:34.40 | 6:35.52 | 214090 | 243766
9 | 54:10.17 | 5:27.15 | 243767 | 268306
Track 1
Filename D:\Rips\Paquito D'Rivera with James Moody - 1991 - Who's Smoking\01 - Who's Smoking !.wav
Pre-gap length 0:00:02.00
Peak level 99.9 %
Track quality 99.9 %
Test CRC B13CB0A8
Copy CRC B13CB0A8
Cannot be verified as accurate (confidence 2) [39CC5A7D], AccurateRip returned [991CB7DF]
Copy OK
Track 2
Filename D:\Rips\Paquito D'Rivera with James Moody - 1991 - Who's Smoking\02 - Giant Steps.wav
Peak level 89.7 %
Track quality 100.0 %
Test CRC 3299BB40
Copy CRC 3299BB40
Cannot be verified as accurate (confidence 2) [3742FCAD], AccurateRip returned [4334E811]
Copy OK
Track 3
Filename D:\Rips\Paquito D'Rivera with James Moody - 1991 - Who's Smoking\03 - Irremediablemente Solo (Incurably Alone).wav
Peak level 93.0 %
Track quality 100.0 %
Test CRC 510FFBAD
Copy CRC 510FFBAD
Cannot be verified as accurate (confidence 2) [A0A6BADE], AccurateRip returned [F51EF8E8]
Copy OK
Track 4
Filename D:\Rips\Paquito D'Rivera with James Moody - 1991 - Who's Smoking\04 - Linda's Moody.wav
Peak level 95.3 %
Track quality 100.0 %
Test CRC 92EB0EBB
Copy CRC 92EB0EBB
Cannot be verified as accurate (confidence 2) [BDECCBA5], AccurateRip returned [E7224985]
Copy OK
Track 5
Filename D:\Rips\Paquito D'Rivera with James Moody - 1991 - Who's Smoking\05 - Desert Storm.wav
Peak level 92.3 %
Track quality 100.0 %
Test CRC 184F1816
Copy CRC 184F1816
Cannot be verified as accurate (confidence 2) [D06F6E9D], AccurateRip returned [29B8DE6A]
Copy OK
Track 6
Filename D:\Rips\Paquito D'Rivera with James Moody - 1991 - Who's Smoking\06 - Nuestro Bolero.wav
Peak level 85.6 %
Track quality 100.0 %
Test CRC 26729063
Copy CRC 26729063
Cannot be verified as accurate (confidence 2) [1450F2BB], AccurateRip returned [50D11FA5]
Copy OK
Track 7
Filename D:\Rips\Paquito D'Rivera with James Moody - 1991 - Who's Smoking\07 - I Mean You.wav
Peak level 89.7 %
Track quality 99.9 %
Test CRC 1606A486
Copy CRC 1606A486
Cannot be verified as accurate (confidence 2) [A26183AD], AccurateRip returned [E5570182]
Copy OK
Track 8
Filename D:\Rips\Paquito D'Rivera with James Moody - 1991 - Who's Smoking\08 - You Got It, Diz!.wav
Peak level 93.5 %
Track quality 100.0 %
Test CRC 262A0AC0
Copy CRC 262A0AC0
Cannot be verified as accurate (confidence 2) [5549088B], AccurateRip returned [7DAAD301]
Copy OK
Track 9
Filename D:\Rips\Paquito D'Rivera with James Moody - 1991 - Who's Smoking\09 - Out Of Nowhere.wav
Peak level 88.4 %
Track quality 99.9 %
Test CRC 81A70F12
Copy CRC 81A70F12
Cannot be verified as accurate (confidence 2) [5E5F8A46], AccurateRip returned [568A2B2A]
Copy OK
No tracks could be verified as accurate
You may have a different pressing from the one(s) in the database
No errors occurred
End of status report
 
Содержание индексной карты (.CUE)
REM GENRE Jazz
REM DATE 1991
REM DISCID 6B0DF909
REM COMMENT "ExactAudioCopy v0.99pb5"
PERFORMER "Paquito D'Rivera & James Moody"
TITLE "Who's Smoking?!"
FILE "01 - Who's Smoking.wav" WAVE
TRACK 01 AUDIO
TITLE "Who's Smoking"
PERFORMER "Paquito D'Rivera & James Moody"
INDEX 01 00:00:00
FILE "02 - Giant Steps.wav" WAVE
TRACK 02 AUDIO
TITLE "Giant Steps"
PERFORMER "Paquito D'Rivera & James Moody"
INDEX 01 00:00:00
FILE "03 - Irremediablemente Solo (Incurably Alone).wav" WAVE
TRACK 03 AUDIO
TITLE "Irremediablemente Solo (Incurably Alone)"
PERFORMER "Paquito D'Rivera & James Moody"
INDEX 01 00:00:00
FILE "04 - Linda's Moody.wav" WAVE
TRACK 04 AUDIO
TITLE "Linda's Moody"
PERFORMER "Paquito D'Rivera & James Moody"
INDEX 01 00:00:00
FILE "05 - Desert Storm.wav" WAVE
TRACK 05 AUDIO
TITLE "Desert Storm"
PERFORMER "Paquito D'Rivera & James Moody"
INDEX 01 00:00:00
FILE "06 - Nuestro Bolero.wav" WAVE
TRACK 06 AUDIO
TITLE "Nuestro Bolero"
PERFORMER "Paquito D'Rivera & James Moody"
INDEX 01 00:00:00
FILE "07 - I Mean You.wav" WAVE
TRACK 07 AUDIO
TITLE "I Mean You"
PERFORMER "Paquito D'Rivera & James Moody"
INDEX 01 00:00:00
FILE "08 - You Got It, Diz!.wav" WAVE
TRACK 08 AUDIO
TITLE "You Got It, Diz!"
PERFORMER "Paquito D'Rivera & James Moody"
INDEX 01 00:00:00
FILE "09 - Out Of Nowhere.wav" WAVE
TRACK 09 AUDIO
TITLE "Out of Nowhere"
PERFORMER "Paquito D'Rivera & James Moody"
INDEX 01 00:00:00
 
Отчет CUETools
[CUETools log; Date: 23.11.2012 22:38:53; Version: 2.1.4]
[CTDB TOCID: isIItkM.qCB9Tbyhw0d0Cmaifxs-] found.
Track | CTDB Status
1 | (2/2) Accurately ripped
2 | (2/2) Accurately ripped
3 | (2/2) Accurately ripped
4 | (2/2) Accurately ripped
5 | (2/2) Accurately ripped
6 | (2/2) Accurately ripped
7 | (2/2) Accurately ripped
8 | (2/2) Accurately ripped
9 | (2/2) Accurately ripped
[AccurateRip ID: 00159e04-009c2652-6b0df909] found.
Track [ CRC | V2 ] Status
01 [39cc5a7d|14611d7b] (2+0/4) Accurately ripped
02 [3742fcad|263fcad3] (2+0/4) Accurately ripped
03 [a0a6bade|55f83901] (2+0/4) Accurately ripped
04 [bdeccba5|de5c7964] (2+0/4) Accurately ripped
05 [d06f6e9d|4c5ebb04] (2+0/4) Accurately ripped
06 [1450f2bb|1865bf25] (2+0/4) Accurately ripped
07 [a26183ad|63d3402b] (2+0/4) Accurately ripped
08 [5549088b|98bf4d2d] (2+0/4) Accurately ripped
09 [5e5f8a46|a943f074] (2+0/4) Accurately ripped
Offsetted by 676:
01 [991cb7df] (2/4) Accurately ripped
02 [4334e811] (2/4) Accurately ripped
03 [f51ef8e8] (2/4) Accurately ripped
04 [e7224985] (2/4) Accurately ripped
05 [29b8de6a] (2/4) Accurately ripped
06 [50d11fa5] (2/4) Accurately ripped
07 [e5570182] (2/4) Accurately ripped
08 [7daad301] (2/4) Accurately ripped
09 [568a2b2a] (2/4) Accurately ripped
Track Peak [ CRC32 ] [W/O NULL] [ LOG ]
-- 99,9 [DB026FC9] [57106927]
01 99,9 [B13CB0A8] [05C270C2] CRC32
02 89,7 [3299BB40] [E8E05419] CRC32
03 93,0 [510FFBAD] [D9BEB0E9] CRC32
04 95,3 [92EB0EBB] [DA79209E] CRC32
05 92,3 [184F1816] [CABDB0A0] CRC32
06 85,6 [26729063] [09C5BBA9] CRC32
07 89,7 [1606A486] [91F8B682] CRC32
08 93,5 [262A0AC0] [40655DC2] CRC32
09 88,4 [81A70F12] [FDA93D49] CRC32
 
Review by Scott Yanow
The answer to this CD's title is the musicians. The heated bebop-oriented session finds Paquito D'Rivera joined by trumpeter Claudio Roditi, flügelhornist Mark Morganelli, Danilo Perez or Pedrito Lopez on piano, bassist Harvie Swartz, and drummer Al Foster. An extra treat is that veteran tenorman James Moody guests on three of the nine selections, inspiring D'Rivera to be particularly heated. Highlights include exciting versions of "Giant Steps" and "I Mean You," a clarinet-bass duet on "Out of Nowhere," Perez's "You Got It, Diz," and the blazing title cut. Highly recommended.
00:41
298
Нет комментариев. Ваш будет первым!