Поиск

(Afro-Cuban Jazz, Post-Bop, Trumpet Jazz) Jerry Gonzalez - Music For Big Band - 2007, FLAC (image+.cue), lossless

Треклист:
Jerry Gonzalez - Music For Big Band
Жанр: Afro-Cuban Jazz, Post-Bop, Trumpet Jazz
Страна-производитель диска: E.U.
Год издания диска: 2007
Издатель (лейбл): Universal Music Spain
Номер по каталогу: LC00699
Страна: USA
Аудиокодек: FLAC (*.flac)
Тип рипа: image+.cue
Битрейт аудио: lossless
Продолжительность: 00:47:39
Источник (релизер): sardanapale
Наличие сканов в содержимом раздачи: да
01. Fall [09:31]
02. El Vito En El Congo [06:51]
03. Goodbye Porkpie Hat [06:18]
04. Nightfall [07:53]
05. Grana [09:43]
06. Duende Y Ache [02:11]
07. Rumba Pa' Kenny [05:12]
 
Лог создания рипа
Exact Audio Copy V0.99 prebeta 5 from 4. May 2009
EAC extraction logfile from 29. September 2010, 13:29
Jerry Gonzalez / Music For Big Band
Used drive : Optiarc DVD RW AD-7240S Adapter: 3 ID: 1
Read mode : Secure
Utilize accurate stream : Yes
Defeat audio cache : Yes
Make use of C2 pointers : No
Read offset correction : 48
Overread into Lead-In and Lead-Out : No
Fill up missing offset samples with silence : Yes
Delete leading and trailing silent blocks : No
Null samples used in CRC calculations : Yes
Used interface : Native Win32 interface for Win NT & 2000
Used output format : User Defined Encoder
Selected bitrate : 768 kBit/s
Quality : High
Add ID3 tag : No
Command line compressor : D:\Exact Audio Copy\FLAC\FLAC.EXE
Additional command line options : -6 -V -T "ARTIST=%a" -T "TITLE=%t" -T "ALBUM=%g" -T "DATE=%y" -T "TRACKNUMBER=%n" -T "GENRE=%m" -T "COMMENT=%e" %s -o %d
TOC of the extracted CD
Track | Start | Length | Start sector | End sector
---------------------------------------------------------
1 | 0:00.00 | 9:31.46 | 0 | 42870
2 | 9:31.46 | 6:51.63 | 42871 | 73758
3 | 16:23.34 | 6:18.01 | 73759 | 102109
4 | 22:41.35 | 7:52.19 | 102110 | 137528
5 | 30:33.54 | 9:43.48 | 137529 | 181301
6 | 40:17.27 | 2:10.34 | 181302 | 191085
7 | 42:27.61 | 5:11.16 | 191086 | 214426
Range status and errors
Selected range
Filename F:\ZIK\Jerry Gonzalez\Music For Big Band\Jerry Gonzalez - Music For Big Band.wav
Peak level 100.0 %
Range quality 100.0 %
Copy CRC 02A0FBB4
Copy OK
No errors occurred
AccurateRip summary
Track 1 accurately ripped (confidence 1) [30C36043]
Track 2 accurately ripped (confidence 1) [06784669]
Track 3 accurately ripped (confidence 1) [1DDD42C9]
Track 4 accurately ripped (confidence 1) [87C2F6D6]
Track 5 accurately ripped (confidence 1) [F2A0E295]
Track 6 accurately ripped (confidence 1) [BDC43985]
Track 7 accurately ripped (confidence 1) [ABD0685B]
All tracks accurately ripped
End of status report
 
Содержание индексной карты (.CUE)
REM GENRE Jazz
REM DATE 2006
REM DISCID 690B2B07
REM COMMENT "ExactAudioCopy v0.99pb5"
PERFORMER "Jerry Gonzalez"
TITLE "Music For Big Band"
FILE "Jerry Gonzalez - Music For Big Band.flac" WAVE
TRACK 01 AUDIO
TITLE "Fall"
PERFORMER "Jerry Gonzalez"
INDEX 01 00:00:00
TRACK 02 AUDIO
TITLE "El Vito En El Congo"
PERFORMER "Jerry Gonzalez"
INDEX 00 09:31:09
INDEX 01 09:31:46
TRACK 03 AUDIO
TITLE "Goodbye Porkpie Hat"
PERFORMER "Jerry Gonzalez"
INDEX 00 16:22:72
INDEX 01 16:23:34
TRACK 04 AUDIO
TITLE "Nightfall"
PERFORMER "Jerry Gonzalez"
INDEX 00 22:40:73
INDEX 01 22:41:35
TRACK 05 AUDIO
TITLE "Grana"
PERFORMER "Jerry Gonzalez"
INDEX 00 30:33:17
INDEX 01 30:33:54
TRACK 06 AUDIO
TITLE "Duende Y Ache"
PERFORMER "Jerry Gonzalez"
INDEX 00 40:16:65
INDEX 01 40:17:27
TRACK 07 AUDIO
TITLE "Rumba Pa' Kenny"
PERFORMER "Jerry Gonzalez"
INDEX 01 42:27:61
 
Состав
Jerry Gonzalez - Congas, cajon, trumpet.
Corka Benitez - tenor sax
Dani Perez - electric guitar
Jesus Catala - Jembe
Miguel Blanco - Dirección musical y arreglos
Israel Sandoval – Guitarra
Mariano Diaz - Piano
Javier Colina - Contrabajo
Dani García - Batería
Fernando Hurtado - Trumpet 1
Raul Gil - Trumpet 2
Jonathan Badichi - Trumpet 3
Carlos Rossi - Trumpet 4
Norman Hogue- - Trombón 1
Roberto Pacheco - Trombón 2
Victor Correa - Trombón 3
José Pardal - Trombón 4
Patxi Pascual - Saxo Alto 1, clarinete, saxo soprano
KevinRobb - SaxoAlto 2, clarinete
Iñaki Araquistain - Saxo Tenor 1, Flauta
Jaime Muela - Saxo Tenor 2, flauta, saxo soprano
Sergio Bienzobas - Saxo Barítono, clarínete bajo
00:39
293
Нет комментариев. Ваш будет первым!