Поиск

(Ethnic Jazz, Brazilian Jazz) Oscar Castro-Neves - Live At Blue Note Tokyo - 2012, FLAC (tracks+.cue), lossless

(Ethnic Jazz, Brazilian Jazz) Oscar Castro-Neves - Live At Blue Note Tokyo - 2012, FLAC (tracks+.cue), lossless
Треклист:
•Oscar Castro-Neves - Live At Blue Note Tokyo•
Жанр: Ethnic Jazz, Brazilian Jazz
Год издания диска: 2012
Издатель (лейбл): Zoho Music
Аудиокодек: FLAC (*.flac)
Тип рипа: tracks+.cue
Битрейт аудио: lossless
Продолжительность: 00:59:24
Источник (релизер): bogustar
Наличие сканов в содержимом раздачи: нет
Треклист:
01. Ela E Carioca
02. Ponteio
03. My Sweet Sweetiepie
04. Domingo Azul Do Mar,Fotografia
05. Waters of March
06. Rio
07. Caninana
08. Rio Dawning
09. Tatiando
10. Misturada,Tombo
11. Chora Tua Tristeza
12. Canto De Ossanha
13. Manha De Carnaval
14. Deixa
 
Лог создания рипа
Exact Audio Copy V1.0 beta 2 from 29. April 2011
EAC extraction logfile from 13. January 2012, 20:43
Oscar Castro-Neves / Live At Blue Note Tokyo
Used drive : HL-DT-STDVD-RAM GH22LS30 Adapter: 2 ID: 1
Read mode : Secure
Utilize accurate stream : Yes
Defeat audio cache : Yes
Make use of C2 pointers : No
Read offset correction : 102
Overread into Lead-In and Lead-Out : No
Fill up missing offset samples with silence : Yes
Delete leading and trailing silent blocks : No
Null samples used in CRC calculations : Yes
Used interface : Native Win32 interface for Win NT & 2000
Gap handling : Appended to previous track
Used output format : Internal WAV Routines
Sample format : 44.100 Hz; 16 Bit; Stereo
TOC of the extracted CD
Track | Start | Length | Start sector | End sector
---------------------------------------------------------
1 | 0:00.00 | 5:22.57 | 0 | 24206
2 | 5:22.57 | 4:33.33 | 24207 | 44714
3 | 9:56.15 | 4:07.23 | 44715 | 63262
4 | 14:03.38 | 4:16.37 | 63263 | 82499
5 | 18:20.00 | 3:10.54 | 82500 | 96803
6 | 21:30.54 | 2:35.03 | 96804 | 108431
7 | 24:05.57 | 5:05.42 | 108432 | 131348
8 | 29:11.24 | 3:17.06 | 131349 | 146129
9 | 32:28.30 | 5:58.62 | 146130 | 173041
10 | 38:27.17 | 5:11.30 | 173042 | 196396
11 | 43:38.47 | 3:27.61 | 196397 | 211982
12 | 47:06.33 | 4:14.66 | 211983 | 231098
13 | 51:21.24 | 4:49.50 | 231099 | 252823
14 | 56:10.74 | 3:13.30 | 252824 | 267328
Track 1
Filename E:\Lossless-Prep\Oscar Castro-Neves-Live At Blue Note Tokyo\01-Ela E Carioca.wav
Pre-gap length 0:00:02.00
Peak level 100.0 %
Extraction speed 1.6 X
Track quality 100.0 %
Test CRC 1AF3D7D6
Copy CRC 1AF3D7D6
Cannot be verified as accurate (confidence 3) [862E93DA], AccurateRip returned [CB3AB11E] (AR v2)
Copy OK
Track 2
Filename E:\Lossless-Prep\Oscar Castro-Neves-Live At Blue Note Tokyo\02-Ponteio.wav
Peak level 100.0 %
Extraction speed 1.8 X
Track quality 100.0 %
Test CRC 1FDF103E
Copy CRC 1FDF103E
Cannot be verified as accurate (confidence 3) [28CB3A88], AccurateRip returned [5D170BEC] (AR v2)
Copy OK
Track 3
Filename E:\Lossless-Prep\Oscar Castro-Neves-Live At Blue Note Tokyo\03-My Sweet Sweetiepie.wav
Peak level 99.3 %
Extraction speed 1.7 X
Track quality 99.9 %
Test CRC 9D37EC03
Copy CRC 9D37EC03
Cannot be verified as accurate (confidence 3) [63570B40], AccurateRip returned [C647B61A] (AR v2)
Copy OK
Track 4
Filename E:\Lossless-Prep\Oscar Castro-Neves-Live At Blue Note Tokyo\04-Domingo Azul Do Mar,Fotografia.wav
Peak level 99.2 %
Extraction speed 2.1 X
Track quality 100.0 %
Test CRC A08620B5
Copy CRC A08620B5
Cannot be verified as accurate (confidence 3) [B6F976A9], AccurateRip returned [F44FBB34] (AR v2)
Copy OK
Track 5
Filename E:\Lossless-Prep\Oscar Castro-Neves-Live At Blue Note Tokyo\05-Waters of March.wav
Peak level 98.6 %
Extraction speed 2.2 X
Track quality 100.0 %
Test CRC 7BB5A47C
Copy CRC 7BB5A47C
Cannot be verified as accurate (confidence 3) [C0FBA7EA], AccurateRip returned [EDD2A124] (AR v2)
Copy OK
Track 6
Filename E:\Lossless-Prep\Oscar Castro-Neves-Live At Blue Note Tokyo\06-Rio.wav
Peak level 100.0 %
Extraction speed 1.8 X
Track quality 99.9 %
Test CRC F2DF5CB6
Copy CRC F2DF5CB6
Cannot be verified as accurate (confidence 3) [C532C647], AccurateRip returned [9B58A564] (AR v2)
Copy OK
Track 7
Filename E:\Lossless-Prep\Oscar Castro-Neves-Live At Blue Note Tokyo\07-Caninana.wav
Peak level 97.8 %
Extraction speed 2.5 X
Track quality 100.0 %
Test CRC 01AF6FD2
Copy CRC 01AF6FD2
Cannot be verified as accurate (confidence 3) [A5FF60A6], AccurateRip returned [99D85896] (AR v2)
Copy OK
Track 8
Filename E:\Lossless-Prep\Oscar Castro-Neves-Live At Blue Note Tokyo\08-Rio Dawning.wav
Peak level 100.0 %
Extraction speed 2.5 X
Track quality 100.0 %
Test CRC 833A28AF
Copy CRC 833A28AF
Cannot be verified as accurate (confidence 3) [00C65DF0], AccurateRip returned [CD95F529] (AR v2)
Copy OK
Track 9
Filename E:\Lossless-Prep\Oscar Castro-Neves-Live At Blue Note Tokyo\09-Tatiando.wav
Peak level 99.0 %
Extraction speed 2.8 X
Track quality 100.0 %
Test CRC AF7A5A8C
Copy CRC AF7A5A8C
Cannot be verified as accurate (confidence 3) [00E2D9D8], AccurateRip returned [F4ACEBC5] (AR v2)
Copy OK
Track 10
Filename E:\Lossless-Prep\Oscar Castro-Neves-Live At Blue Note Tokyo\10-Misturada,Tombo.wav
Peak level 100.0 %
Extraction speed 2.6 X
Track quality 99.9 %
Test CRC E4294A1F
Copy CRC E4294A1F
Cannot be verified as accurate (confidence 3) [76C888D5], AccurateRip returned [1732A2FA] (AR v2)
Copy OK
Track 11
Filename E:\Lossless-Prep\Oscar Castro-Neves-Live At Blue Note Tokyo\11-Chora Tua Tristeza.wav
Peak level 99.5 %
Extraction speed 2.4 X
Track quality 99.9 %
Test CRC AEE15D47
Copy CRC AEE15D47
Cannot be verified as accurate (confidence 3) [90868F41], AccurateRip returned [3F048A5D] (AR v2)
Copy OK
Track 12
Filename E:\Lossless-Prep\Oscar Castro-Neves-Live At Blue Note Tokyo\12-Canto De Ossanha.wav
Peak level 100.0 %
Extraction speed 3.0 X
Track quality 100.0 %
Test CRC 9705F47D
Copy CRC 9705F47D
Cannot be verified as accurate (confidence 3) [9EAFC697], AccurateRip returned [6A5BA472] (AR v2)
Copy OK
Track 13
Filename E:\Lossless-Prep\Oscar Castro-Neves-Live At Blue Note Tokyo\13-Manha De Carnaval.wav
Peak level 99.3 %
Extraction speed 3.1 X
Track quality 100.0 %
Test CRC ACE480F8
Copy CRC ACE480F8
Cannot be verified as accurate (confidence 3) [17A8390A], AccurateRip returned [7193EA97] (AR v2)
Copy OK
Track 14
Filename E:\Lossless-Prep\Oscar Castro-Neves-Live At Blue Note Tokyo\14-Deixa.wav
Peak level 97.2 %
Extraction speed 3.0 X
Track quality 100.0 %
Test CRC A0E4194B
Copy CRC A0E4194B
Cannot be verified as accurate (confidence 2) [9558DB2D], AccurateRip returned [EE942F87] (AR v2)
Copy OK
No tracks could be verified as accurate
You may have a different pressing from the one(s) in the database
No errors occurred
End of status report
==== Log checksum 7AC64F3F80D164940C9F7180EF93B10A4CBF60883D9A8A43DAA62E6B3EB8A666 ====
 
Содержание индексной карты (.CUE)
REM DISCID BC0DEC0E
REM COMMENT "ExactAudioCopy v1.0b2"
CATALOG 4543034020935
PERFORMER "Oscar Castro-Neves"
TITLE "Live At Blue Note Tokyo"
FILE "01-Ela E Carioca.wav" WAVE
TRACK 01 AUDIO
TITLE "Ela E Carioca"
PERFORMER "Oscar Castro-Neves"
ISRC JPJ900906550
INDEX 01 00:00:00
FILE "02-Ponteio.wav" WAVE
TRACK 02 AUDIO
TITLE "Ponteio"
PERFORMER "Oscar Castro-Neves"
ISRC JPJ900906580
INDEX 01 00:00:00
FILE "03-My Sweet Sweetiepie.wav" WAVE
TRACK 03 AUDIO
TITLE "My Sweet Sweetiepie"
PERFORMER "Oscar Castro-Neves"
ISRC JPJ900906560
INDEX 01 00:00:00
FILE "04-Domingo Azul Do Mar,Fotografia.wav" WAVE
TRACK 04 AUDIO
TITLE "Domingo Azul Do Mar/Fotografia"
PERFORMER "Oscar Castro-Neves"
ISRC JPJ900906590
INDEX 01 00:00:00
FILE "05-Waters of March.wav" WAVE
TRACK 05 AUDIO
TITLE "Waters of March"
PERFORMER "Oscar Castro-Neves"
ISRC JPJ900906570
INDEX 01 00:00:00
FILE "06-Rio.wav" WAVE
TRACK 06 AUDIO
TITLE "Rio"
PERFORMER "Oscar Castro-Neves"
ISRC JPJ900906600
INDEX 01 00:00:00
FILE "07-Caninana.wav" WAVE
TRACK 07 AUDIO
TITLE "Caninana"
PERFORMER "Oscar Castro-Neves"
ISRC JPJ900906610
INDEX 01 00:00:00
FILE "08-Rio Dawning.wav" WAVE
TRACK 08 AUDIO
TITLE "Rio Dawning"
PERFORMER "Oscar Castro-Neves"
ISRC JPJ900906620
INDEX 01 00:00:00
FILE "09-Tatiando.wav" WAVE
TRACK 09 AUDIO
TITLE "Tatiando"
PERFORMER "Oscar Castro-Neves"
ISRC JPJ900906630
INDEX 01 00:00:00
FILE "10-Misturada,Tombo.wav" WAVE
TRACK 10 AUDIO
TITLE "Misturada/Tombo"
PERFORMER "Oscar Castro-Neves"
ISRC JPJ900906640
INDEX 01 00:00:00
FILE "11-Chora Tua Tristeza.wav" WAVE
TRACK 11 AUDIO
TITLE "Chora Tua Tristeza"
PERFORMER "Oscar Castro-Neves"
ISRC JPJ900906650
INDEX 01 00:00:00
FILE "12-Canto De Ossanha.wav" WAVE
TRACK 12 AUDIO
TITLE "Canto De Ossanha"
PERFORMER "Oscar Castro-Neves"
ISRC JPJ900906660
INDEX 01 00:00:00
FILE "13-Manha De Carnaval.wav" WAVE
TRACK 13 AUDIO
TITLE "Manha De Carnaval"
PERFORMER "Oscar Castro-Neves"
ISRC JPJ900906680
INDEX 01 00:00:00
FILE "14-Deixa.wav" WAVE
TRACK 14 AUDIO
TITLE "Deixa"
PERFORMER "Oscar Castro-Neves"
ISRC JPJ900906670
INDEX 01 00:00:00
00:54
270
Нет комментариев. Ваш будет первым!