Поиск

2007 Bebel Gilberto - Momento {Six Degrees 657036 1133-2} [CD]

2007 Bebel Gilberto - Momento {Six Degrees 657036 1133-2} [CD]

Треклист:

01. Momento (5:17)
02. Bring Back the Love (feat. Brazilian Girls) (4:29)
03. Close to You (3:21)
04. Os Novos Yorkinos (3:42)
05. Azul (3:13)
06. Cacada (4:35)
07. Night and Day (4:57)
08. Tranquilo (feat. Orquestra Imperial) (4:06)
09. Um Segundo (3:12)
10. Cade Voce? (3:33)
11. Words (2:30)

Жанр: Latin Jazz, Bossa Nova
Носитель: CD
Страна-производитель диска (релиза): США
Год издания: 2007
Издатель (лейбл): Six Degrees Records
Номер по каталогу: 657036 1133-2
Аудиокодек: FLAC (*.flac)
Тип рипа: tracks+.cue
Битрейт аудио: lossless
Продолжительность: 00:42:55
Источник: WhatWasOnceHisHead
Наличие сканов в содержимом раздачи: нет

Состав:
  • Rodrigo Amarante    Clapping, Vocals (Background)
  • Pedro Baby    Guitar (Acoustic)
  • Bartolo    Guitar (Electric)
  • Béco    Clapping, Vocals (Background)
  • Ian Burdge    Cello
  • Berna Ceppas    Clapping, Editing, Engineer, Guiro, Producer, Sampling, Tibetan Bells, Vibraphone
  • Jorge Continentino    Flute, Pifana, Sax (Baritone)
  • Bidu Cordeiro    Trombone, Trombone (Bass)
  • Carlos Darci    Trombone
  • Thalma de Freitas    Clapping, Vocals, Vocals (Background)
  • Roberto "Beco" Dranoff    A&R, Executive Producer, Producer
  • Cezar Farias "Bodão"    Bongos
  • Celso Fonseca    Guitar (Acoustic), Guitar (Steel)
  • Bebel Gilberto    Clapping, Composer, Horn Arrangements, Illustrations, Layout Design, Producer, Vocals, Vocals (Background)
  • Didi Gutman    Clapping, Composer, Engineer, Guitar, Keyboards, Producer, Programming, Vocals (Background)
  • Jorge Helder    Bass (Electric)
  • Nelson Jacobina    Guitar (Electric)
  • Rubinho Jacobina    Piano (Electric)
  • Aaron Johnston    Drums
  • Domenico Lancellotti    Drums
  • Paulo Levi    Flute (Alto), Sax (Tenor)
  • Zé Luis    Flute (Alto)
  • Antoine Midani    Engineer
  • Jesse Murphy    Bass
  • Felipe Pinaud    Flute, Horn Arrangements
  • Mauro Refosco    Agogo, Caxixi, Chinese Cymbals, Clapping, Composer, Congas, Cymbals, Drums (Snare), Gongue, Pandeiro, Percussion, Programming, Quijada, Repique, Shaker, Shekere, Talking Drum, Tambourine, Tambur, Timba, Triangle, Udu, Vibraphone, Vocals (Background), Zabumba
  • Pedro Sá    Guitar (Electric)
  • Stephane San Juan    Clapping, Cowbell, Maracas, Timbales
  • Sabina Sciubba    Charango, Composer, Producer, Vocals, Vocals (Background)
  • Marlon Sette    Trombone
  • Masa Shimizu    Composer, Guitar (Acoustic), Producer
  • Guy Sigsworth    Composer, Guitar (Acoustic), Producer, Programming
  • Moreno Veloso    Congas
Лог создания рипа
Exact Audio Copy V1.3 from 2. September 2016

EAC extraction logfile from 18. January 2019, 15:33

Bebel Gilberto / Momento

Used drive  : PLDS    DVD+-RW DU-8A5LH   Adapter: 1  ID: 0

Read mode               : Secure
Utilize accurate stream : Yes
Defeat audio cache      : Yes
Make use of C2 pointers : No

Read offset correction                      : 6
Overread into Lead-In and Lead-Out          : No
Fill up missing offset samples with silence : Yes
Delete leading and trailing silent blocks   : No
Null samples used in CRC calculations       : Yes
Used interface                              : Native Win32 interface for Win NT & 2000
Gap handling                                : Appended to previous track

Used output format              : User Defined Encoder
Selected bitrate                : 1024 kBit/s
Quality                         : High
Add ID3 tag                     : No
Command line compressor         : C:/Program Files (x86)/Exact Audio Copy/Flac/flac.exe
Additional command line options : -8 -e -p -V -T "ARTIST=%artist%" -T "TITLE=%title%" -T "ALBUM=%albumtitle%" -T "DATE=%year%" -T "TRACKNUMBER=%tracknr%" -T "GENRE=%genre%" -T "PERFORMER=%albuminterpret%" -T "COMPOSER=%composer%" %haslyrics%--tag-from-file=LYRICS="%lyricsfile%"%haslyrics% -T "ALBUMARTIST=%albumartist%" -T "DISCNUMBER=%cdnumber%" -T "TOTALDISCS=%totalcds%" -T "TOTALTRACKS=%numtracks%" -T "COMMENT=%comment%" %source% -o %dest%

TOC of the extracted CD

     Track |   Start  |  Length  | Start sector | End sector
    ---------------------------------------------------------
        1  |  0:00.00 |  5:16.56 |         0    |    23755
        2  |  5:16.56 |  4:29.03 |     23756    |    43933
        3  |  9:45.59 |  3:20.59 |     43934    |    58992
        4  | 13:06.43 |  3:41.52 |     58993    |    75619
        5  | 16:48.20 |  3:13.34 |     75620    |    90128
        6  | 20:01.54 |  4:34.68 |     90129    |   110746
        7  | 24:36.47 |  4:57.20 |    110747    |   133041
        8  | 29:33.67 |  4:06.28 |    133042    |   151519
        9  | 33:40.20 |  3:12.30 |    151520    |   165949
       10  | 36:52.50 |  3:32.47 |    165950    |   181896
       11  | 40:25.22 |  2:30.20 |    181897    |   193166

Track  1

     Filename C:\Users\onean\Desktop\Bebel Gilberto - Momento (2007) [Flac] {657036 1133-2}\01 - Momento.wav

     Pre-gap length  0:00:02.00

     Peak level 89.9 %
     Extraction speed 1.1 X
     Track quality 99.9 %
     Test CRC 508E9F67
     Copy CRC 508E9F67
     Accurately ripped (confidence 37)  [22076FA5]  (AR v2)
     Copy OK

Track  2

     Filename C:\Users\onean\Desktop\Bebel Gilberto - Momento (2007) [Flac] {657036 1133-2}\02 - Bring Back The Love (feat. Brazilian Girls).wav

     Pre-gap length  0:00:02.00

     Peak level 94.1 %
     Extraction speed 1.3 X
     Track quality 100.0 %
     Test CRC 92B70E91
     Copy CRC 92B70E91
     Accurately ripped (confidence 37)  [E12D9116]  (AR v2)
     Copy OK

Track  3

     Filename C:\Users\onean\Desktop\Bebel Gilberto - Momento (2007) [Flac] {657036 1133-2}\03 - Close To You.wav

     Pre-gap length  0:00:02.00

     Peak level 92.8 %
     Extraction speed 1.3 X
     Track quality 100.0 %
     Test CRC 9C6666AF
     Copy CRC 9C6666AF
     Accurately ripped (confidence 36)  [66E93514]  (AR v2)
     Copy OK

Track  4

     Filename C:\Users\onean\Desktop\Bebel Gilberto - Momento (2007) [Flac] {657036 1133-2}\04 - Os Novos Yorkinos.wav

     Pre-gap length  0:00:02.00

     Peak level 93.1 %
     Extraction speed 1.4 X
     Track quality 100.0 %
     Test CRC 70336264
     Copy CRC 70336264
     Accurately ripped (confidence 36)  [C6AC6643]  (AR v2)
     Copy OK

Track  5

     Filename C:\Users\onean\Desktop\Bebel Gilberto - Momento (2007) [Flac] {657036 1133-2}\05 - Azul.wav

     Pre-gap length  0:00:02.00

     Peak level 91.2 %
     Extraction speed 1.5 X
     Track quality 100.0 %
     Test CRC 254E15B8
     Copy CRC 254E15B8
     Accurately ripped (confidence 37)  [BF9C3BAF]  (AR v2)
     Copy OK

Track  6

     Filename C:\Users\onean\Desktop\Bebel Gilberto - Momento (2007) [Flac] {657036 1133-2}\06 - Caçada.wav

     Pre-gap length  0:00:02.00

     Peak level 93.9 %
     Extraction speed 1.5 X
     Track quality 99.9 %
     Test CRC C84BE76D
     Copy CRC C84BE76D
     Accurately ripped (confidence 37)  [3D74B037]  (AR v2)
     Copy OK

Track  7

     Filename C:\Users\onean\Desktop\Bebel Gilberto - Momento (2007) [Flac] {657036 1133-2}\07 - Night And Day.wav

     Pre-gap length  0:00:02.00

     Peak level 92.9 %
     Extraction speed 1.8 X
     Track quality 100.0 %
     Test CRC F2C078C1
     Copy CRC F2C078C1
     Accurately ripped (confidence 37)  [D42277E0]  (AR v2)
     Copy OK

Track  8

     Filename C:\Users\onean\Desktop\Bebel Gilberto - Momento (2007) [Flac] {657036 1133-2}\08 - Tranquilo (feat. Orquestra Imperial).wav

     Pre-gap length  0:00:02.00

     Peak level 93.3 %
     Extraction speed 1.8 X
     Track quality 100.0 %
     Test CRC 3DD2D1FE
     Copy CRC 3DD2D1FE
     Accurately ripped (confidence 37)  [C574F4D6]  (AR v2)
     Copy OK

Track  9

     Filename C:\Users\onean\Desktop\Bebel Gilberto - Momento (2007) [Flac] {657036 1133-2}\09 - Um Segundo.wav

     Pre-gap length  0:00:02.00

     Peak level 93.5 %
     Extraction speed 1.8 X
     Track quality 100.0 %
     Test CRC 7511514D
     Copy CRC 7511514D
     Accurately ripped (confidence 37)  [178EA167]  (AR v2)
     Copy OK

Track 10

     Filename C:\Users\onean\Desktop\Bebel Gilberto - Momento (2007) [Flac] {657036 1133-2}\10 - Cadê Você.wav

     Pre-gap length  0:00:02.00

     Peak level 93.0 %
     Extraction speed 1.9 X
     Track quality 100.0 %
     Test CRC 13DA6488
     Copy CRC 13DA6488
     Accurately ripped (confidence 37)  [DAD0888E]  (AR v2)
     Copy OK

Track 11

     Filename C:\Users\onean\Desktop\Bebel Gilberto - Momento (2007) [Flac] {657036 1133-2}\11 - Words.wav

     Pre-gap length  0:00:02.00

     Peak level 90.1 %
     Extraction speed 1.8 X
     Track quality 100.0 %
     Test CRC 956B1350
     Copy CRC 956B1350
     Accurately ripped (confidence 37)  [8F7ED0CE]  (AR v2)
     Copy OK

All tracks accurately ripped

No errors occurred

End of status report

---- CUETools DB Plugin V2.1.6

[CTDB TOCID: CHUI_kVIaTeAjVD.IQA4B_dT20c-] found
Submit result: already submitted
Track | CTDB Status
  1   | (39/39) Accurately ripped
  2   | (39/39) Accurately ripped
  3   | (39/39) Accurately ripped
  4   | (39/39) Accurately ripped
  5   | (39/39) Accurately ripped
  6   | (38/39) Accurately ripped
  7   | (39/39) Accurately ripped
  8   | (39/39) Accurately ripped
  9   | (39/39) Accurately ripped
 10   | (39/39) Accurately ripped
 11   | (39/39) Accurately ripped

==== Log checksum B9AB9E542A52FAD129F7EE610A6ACF29A6FE667C85A668A50F9D6E882257F9AC ====
Содержание индексной карты (.CUE)
REM GENRE Latin
REM DATE 2007
REM DISCID 870A0F0B
REM COMMENT "ExactAudioCopy v1.3"
PERFORMER "Bebel Gilberto"
TITLE "Momento"
FILE "01 - Momento.wav" WAVE
  TRACK 01 AUDIO
    TITLE "Momento"
    PERFORMER "Bebel Gilberto"
    ISRC BE6F50602100
    INDEX 01 00:00:00
  TRACK 02 AUDIO
    TITLE "Bring Back the Love (feat. Brazilian Girls)"
    PERFORMER "Bebel Gilberto"
    ISRC BE6F50602110
    INDEX 00 05:14:56
FILE "02 - Bring Back the Love (feat. Brazilian Girls).wav" WAVE
    INDEX 01 00:00:00
  TRACK 03 AUDIO
    TITLE "Close to You"
    PERFORMER "Bebel Gilberto"
    ISRC BE6F50602120
    INDEX 00 04:27:03
FILE "03 - Close to You.wav" WAVE
    INDEX 01 00:00:00
  TRACK 04 AUDIO
    TITLE "Os Novos Yorkinos"
    PERFORMER "Bebel Gilberto"
    ISRC BE6F50602130
    INDEX 00 03:18:59
FILE "04 - Os Novos Yorkinos.wav" WAVE
    INDEX 01 00:00:00
  TRACK 05 AUDIO
    TITLE "Azul"
    PERFORMER "Bebel Gilberto"
    ISRC BE6F50602140
    INDEX 00 03:39:52
FILE "05 - Azul.wav" WAVE
    INDEX 01 00:00:00
  TRACK 06 AUDIO
    TITLE "Cacada"
    PERFORMER "Bebel Gilberto"
    ISRC BE6F50602150
    INDEX 00 03:11:34
FILE "06 - Cacada.wav" WAVE
    INDEX 01 00:00:00
  TRACK 07 AUDIO
    TITLE "Night and Day"
    PERFORMER "Bebel Gilberto"
    ISRC BE6F50602160
    INDEX 00 04:32:68
FILE "07 - Night and Day.wav" WAVE
    INDEX 01 00:00:00
  TRACK 08 AUDIO
    TITLE "Tranquilo (feat. Orquestra Imperial)"
    PERFORMER "Bebel Gilberto"
    ISRC BE6F50602210
    INDEX 00 04:55:20
FILE "08 - Tranquilo (feat. Orquestra Imperial).wav" WAVE
    INDEX 01 00:00:00
  TRACK 09 AUDIO
    TITLE "Um Segundo"
    PERFORMER "Bebel Gilberto"
    ISRC BE6F50602180
    INDEX 00 04:04:28
FILE "09 - Um Segundo.wav" WAVE
    INDEX 01 00:00:00
  TRACK 10 AUDIO
    TITLE "Cade Voce?"
    PERFORMER "Bebel Gilberto"
    ISRC BE6F50602190
    INDEX 00 03:10:30
FILE "10 - Cade Voce.wav" WAVE
    INDEX 01 00:00:00
  TRACK 11 AUDIO
    TITLE "Words"
    PERFORMER "Bebel Gilberto"
    ISRC BE6F50602200
    INDEX 00 03:30:47
FILE "11 - Words.wav" WAVE
    INDEX 01 00:00:00
Лог проверки качества
[CUETools log; Date: 20.01.2019 23:21:57; Version: 2.1.6]
[CTDB TOCID: CHUI_kVIaTeAjVD.IQA4B_dT20c-] found.
Track | CTDB Status
  1   | (39/39) Accurately ripped
  2   | (39/39) Accurately ripped
  3   | (39/39) Accurately ripped
  4   | (39/39) Accurately ripped
  5   | (39/39) Accurately ripped
  6   | (38/39) Accurately ripped
  7   | (39/39) Accurately ripped
  8   | (39/39) Accurately ripped
  9   | (39/39) Accurately ripped
 10   | (39/39) Accurately ripped
 11   | (39/39) Accurately ripped
[AccurateRip ID: 0012bfd3-00a07541-870a0f0b] found.
Track   [  CRC   |   V2   ] Status
 01     [786010d6|22076fa5] (54+37/91) Accurately ripped
 02     [5f8617d8|e12d9116] (54+37/91) Accurately ripped
 03     [d6828d1e|66e93514] (54+36/90) Accurately ripped
 04     [94cce8cd|c6ac6643] (54+36/90) Accurately ripped
 05     [03d82696|bf9c3baf] (54+37/91) Accurately ripped
 06     [36a99db8|3d74b037] (54+37/91) Accurately ripped
 07     [4aad65b8|d42277e0] (55+37/92) Accurately ripped
 08     [f862c6f9|c574f4d6] (55+37/92) Accurately ripped
 09     [c25c4654|178ea167] (54+37/91) Accurately ripped
 10     [13e0bcf2|dad0888e] (54+37/91) Accurately ripped
 11     [6d2b4ee2|8f7ed0ce] (54+37/91) Accurately ripped

Track Peak [ CRC32  ] [W/O NULL] [  LOG   ]
 --   94,1 [8175198B] [B4698FBA]
 01   89,9 [508E9F67] [45EFCDFA]   CRC32
 02   94,1 [92B70E91] [5486C2BA]   CRC32
 03   92,8 [9C6666AF] [16717E7D]   CRC32
 04   93,1 [70336264] [98E27265]   CRC32
 05   91,2 [254E15B8] [55BAD8B8]   CRC32
 06   93,9 [C84BE76D] [5B90B88A]   CRC32
 07   92,9 [F2C078C1] [F6ABA29F]   CRC32
 08   93,3 [3DD2D1FE] [C41408BD]   CRC32
 09   93,5 [7511514D] [ADED28E3]   CRC32
 10   93,0 [13DA6488] [33CFB5F0]   CRC32
 11   90,1 [956B1350] [5D356722]   CRC32
00:55
385
Нет комментариев. Ваш будет первым!