Поиск

(World Fusion / Ethnic Jazz / ACT Music) Kudsi Erguner (Christof Lauer, Michel Godard, Mark Nauseef, Derya Turkan, Necib Gulses, Mehmet Emin Bitmez, Yves Rousseau, Hakan Gungor, Bruno Caillat) - Ottomania - 1999, FLAC (tracks+.cue), lossless

(World Fusion / Ethnic Jazz / ACT Music) Kudsi Erguner (Christof Lauer, Michel Godard, Mark Nauseef, Derya Turkan, Necib Gulses, Mehmet Emin Bitmez, Yves Rousseau, Hakan Gungor, Bruno Caillat) - Ottomania - 1999, FLAC (tracks+.cue), lossless
Издатель (лейбл):
Kudsi Erguner - Ottomania
Жанр: World Fusion / Ethnic Jazz
Страна-производитель диска: Germany
Год издания диска: 1999
Издатель (лейбл): ACT Music
Номер по каталогу: ACT 9006-2 / Categories: World Jazz
Аудиокодек: FLAC (*.flac)
Тип рипа: tracks+.cue
Битрейт аудио: lossless
Продолжительность: 00:49:43
Источник (релизер): другой трекер
Наличие сканов в содержимом раздачи: да / *.png (300 dpi)
Треклист:
1. Semai (Mesut Cemil Bey) (05:48)
2. Sufimaj (Kudsi Erguner) (04:37)
3. Dua (Kudsi Erguner) (12:55)
4. Free Space (Kudsi Erguner) (07:47)
5. Nefes (Kudsi Erguner) (09:06)
6. Hi-Jaz (Kudsi Erguner) (09:18)
Доп. информация:
Musicians:
Kudsi Erguner - ney (reed flute)
Christof Lauer - saxophone
Derya Turkan - kemençe (turkish violin)
Michel Godard - tuba & snake
Mehmet Emin Bitmez - ud (luth)
Yves Rousseau - doublebass
Hakan Gungor - kanun (sitar)
Bruno Caillat - bendir, zarb, tabla, daf, traditional percussions
Necib Gulses - tanbur (luth)
Mark Nauseef - drums
Recorded at Imaj Studio, Istanbul, Turkey on May 1 - 5, 1998
KUDSI ERGUNER - Ottomania actmusic.com
 
... text ...
The first World Music project that integrates the classical music of the Ottoman Empire with Western jazz improvisations and rhythms.
 
... photo ...
 
Product Info
Kudsi Erguner’s Ottomania is the first World Music project that integrates the classical music of the Ottoman Empire with Western jazz improvisations and rhythms. It documents the story of a remarkable musical encounter, and is a logical continuation of Erguner’s eventful life.
Kudsi Erguner was born in Diyarbakir, Turkey in 1952, and has lived in Paris since 1975. On his way to preserving the inheritance of the Sufis, Kudsi Erguner had to battle against those who opposed him, and travel down unfamiliar paths. The flutist (he plays the Ney, a Turkish reed flute) is also active as musicologist, author, teacher and artistic adviser. He has worked as a musician and composer on various film scores (Martin Scorsese, with Peter Gabriel), theater pieces (Peter Brook), and ballet productions (Maurice Béjart, Carolyn Carlson). He has fused the most varied styles and epochs of occidental music with traditional Turkish music. It was because of this intermingling of musical styles that he aroused so much attention with his participation in Mozart’s The Abduction from the Seraglio at the Salzburg Festivals in 1997/98. Likewise with his solo improvisations during the performance of Guillaume de Machaut’s Messe de Notre Dame with the Hilliard Ensemble at the London Royal Festival Hall in February 1999.
"Listen to the reed how it tells a tale..." So wrote Sufi master Djalal Ed Din Rumi in his mystic 13th century poem about the Ney. Erguner believes that had Djalal Ed Din Rumi been alive today, he might well have anointed the saxophone as holy instrument. Kudsi Erguner is the only Turkish musician of his generation to have been taught the Ney-flute in the classic oral tradition by his father, Ulvi Erguner, the last great master of the Ney-flute, and the former director of Radio Istanbul. Hundreds of years of a musical culture which always strove towards freedom and ecstasy are reflected in his playing.
By the soundtrack of Peter Brook’s film Mahabharata, Erguner, playing together with musicians from Japan, India, Denmark, Iran, and France, had attained a mystical, universal, elemental music. Everything is, after all, only a question of mutual respect, sensitivity, and openness. Unfortunately, 99% of the fusion music that is produced today is simply badly pasted together collages. With Ottomania, I have attempted to let a fusion really develop. It was therefore necessary for both sides to take a step towards each other.
With Kudsi Erguner’s ensemble on one side, and three great musicians from the international jazz scene - the German saxophonist Christof Lauer, the French tuba and serpent player Michel Godard, and the American drummer Mark Nauseef - on the other, Ottomania has successfully taken this step.
 
Лог создания рипа
Exact Audio Copy V1.0 beta 3 from 29. August 2011
EAC extraction logfile from 4. January 2012, 13:41
Kudsi Erguner / Ottomania - Sufi Jazz Project
Used drive : PLEXTOR DVDR PX-860A Adapter: 0 ID: 0
Read mode : Secure
Utilize accurate stream : Yes
Defeat audio cache : Yes
Make use of C2 pointers : No
Read offset correction : 96
Overread into Lead-In and Lead-Out : No
Fill up missing offset samples with silence : Yes
Delete leading and trailing silent blocks : No
Null samples used in CRC calculations : Yes
Used interface : Native Win32 interface for Win NT & 2000
Gap handling : Appended to previous track
Used output format : User Defined Encoder
Selected bitrate : 1024 kBit/s
Quality : High
Add ID3 tag : No
Command line compressor : C:\Program Files\Exact Audio Copy 3\Flac\flac.exe
Additional command line options : -8 -V -T "ARTIST=%artist%" -T "TITLE=%title%" -T "ALBUM=%albumtitle%" -T "DATE=%year%" -T "TRACKNUMBER=%tracknr%" -T "GENRE=%genre%" -T "PERFORMER=%albuminterpret%" -T "COMPOSER=%composer%" %haslyrics%--tag-from-file=LYRICS="%lyricsfile%"%haslyrics% -T "ALBUMARTIST=%albumartist%" -T "DISCNUMBER=%cdnumber%" -T "TOTALDISCS=%totalcds%" -T "TOTALTRACKS=%numtracks%" -T "COMMENT=%comment%" %source% -o %dest%
TOC of the extracted CD
Track | Start | Length | Start sector | End sector
---------------------------------------------------------
1 | 0:00.60 | 5:48.15 | 60 | 26174
2 | 5:49.00 | 4:37.21 | 26175 | 46970
3 | 10:26.21 | 12:55.06 | 46971 | 105101
4 | 23:21.27 | 7:46.49 | 105102 | 140100
5 | 31:08.01 | 9:06.05 | 140101 | 181055
6 | 40:14.06 | 9:18.13 | 181056 | 222918
Track 1
Filename S:\DL\Kudsi Erguner - Ottomania - Sufi Jazz Project (1999) [FLAC]\01 - Semai.wav
Pre-gap length 0:00:02.80
Peak level 100.0 %
Extraction speed 4.6 X
Track quality 100.0 %
Test CRC EFB11351
Copy CRC EFB11351
Accurately ripped (confidence 3) [4F967A8A] (AR v1)
Copy OK
Track 2
Filename S:\DL\Kudsi Erguner - Ottomania - Sufi Jazz Project (1999) [FLAC]\02 - Sufimaj.wav
Pre-gap length 0:00:01.45
Peak level 98.8 %
Extraction speed 5.1 X
Track quality 100.0 %
Test CRC 4F78803F
Copy CRC 4F78803F
Accurately ripped (confidence 3) [5AD68FA5] (AR v1)
Copy OK
Track 3
Filename S:\DL\Kudsi Erguner - Ottomania - Sufi Jazz Project (1999) [FLAC]\03 - Dua.wav
Pre-gap length 0:00:02.65
Peak level 100.0 %
Extraction speed 6.1 X
Track quality 99.9 %
Test CRC DF819841
Copy CRC DF819841
Accurately ripped (confidence 3) [BDE95EF1] (AR v1)
Copy OK
Track 4
Filename S:\DL\Kudsi Erguner - Ottomania - Sufi Jazz Project (1999) [FLAC]\04 - Free space.wav
Pre-gap length 0:00:02.48
Peak level 100.0 %
Extraction speed 7.1 X
Track quality 100.0 %
Test CRC 1D65F41F
Copy CRC 1D65F41F
Accurately ripped (confidence 3) [E4059F10] (AR v1)
Copy OK
Track 5
Filename S:\DL\Kudsi Erguner - Ottomania - Sufi Jazz Project (1999) [FLAC]\05 - Nefes.wav
Pre-gap length 0:00:01.12
Peak level 100.0 %
Extraction speed 7.7 X
Track quality 100.0 %
Test CRC 5B9B1617
Copy CRC 5B9B1617
Accurately ripped (confidence 3) [75CCB845] (AR v1)
Copy OK
Track 6
Filename S:\DL\Kudsi Erguner - Ottomania - Sufi Jazz Project (1999) [FLAC]\06 - Hi-Jaz.wav
Pre-gap length 0:00:02.65
Peak level 100.0 %
Extraction speed 8.3 X
Track quality 100.0 %
Test CRC 909A28A7
Copy CRC 909A28A7
Accurately ripped (confidence 3) [0A42A315] (AR v1)
Copy OK
All tracks accurately ripped
No errors occurred
End of status report
==== Log checksum 12D6C715598FEE68C3FC82D7B0D00A7E77109B66F1B7270DA23A13749F1F7147 ====
 
Содержание индексной карты (.CUE)
REM GENRE Jazz
REM DATE 1999
REM DISCID 400B9C06
REM COMMENT "ExactAudioCopy v1.0b3"
CATALOG 0000000000000
PERFORMER "Kudsi Erguner"
TITLE "Ottomania - Sufi Jazz Project"
FILE "01 - Semai.wav" WAVE
TRACK 01 AUDIO
TITLE "Semai"
PERFORMER "Kudsi Erguner"
ISRC DEA899901310
PREGAP 00:00:60
INDEX 01 00:00:00
TRACK 02 AUDIO
TITLE "Sufimaj"
PERFORMER "Kudsi Erguner"
ISRC DEA899901320
INDEX 00 05:46:56
FILE "02 - Sufimaj.wav" WAVE
INDEX 01 00:00:00
TRACK 03 AUDIO
TITLE "Dua"
PERFORMER "Kudsi Erguner"
ISRC DEA899901330
INDEX 00 04:34:47
FILE "03 - Dua.wav" WAVE
INDEX 01 00:00:00
TRACK 04 AUDIO
TITLE "Free space"
PERFORMER "Kudsi Erguner"
ISRC DEA899901340
INDEX 00 12:52:45
FILE "04 - Free space.wav" WAVE
INDEX 01 00:00:00
TRACK 05 AUDIO
TITLE "Nefes"
PERFORMER "Kudsi Erguner"
ISRC DEA899901350
INDEX 00 07:45:40
FILE "05 - Nefes.wav" WAVE
INDEX 01 00:00:00
TRACK 06 AUDIO
TITLE "Hi-Jaz"
PERFORMER "Kudsi Erguner"
ISRC DEA899901360
INDEX 00 09:03:31
FILE "06 - Hi-Jaz.wav" WAVE
INDEX 01 00:00:00
 
Audiochecker 2.0 beta (build 457)
[pre]AUDIOCHECKER v2.0 beta (build 457) - by Dester - opdester@freemail.hu
~~~~~~~~~~~~~~~~~~~~~~~~~~~~~~~~~~
Started at: суббота, 14. 01. 2012. - 21:28.19
6 files found
1 -===- L:\rutracker.org_Audio CD\#_006_Kudsi Erguner - Ottomania (1999)\Kudsi Erguner - Ottomania (1999)\01 - Semai.flac
Extracted successfully
Conclusion: this track is CDDA with probability 100%
Tempfile successfully deleted.
2 -===- L:\rutracker.org_Audio CD\#_006_Kudsi Erguner - Ottomania (1999)\Kudsi Erguner - Ottomania (1999)\02 - Sufimaj.flac
Extracted successfully
Conclusion: this track is CDDA with probability 100%
Tempfile successfully deleted.
3 -===- L:\rutracker.org_Audio CD\#_006_Kudsi Erguner - Ottomania (1999)\Kudsi Erguner - Ottomania (1999)\03 - Dua.flac
Extracted successfully
Conclusion: this track is CDDA with probability 100%
Tempfile successfully deleted.
4 -===- L:\rutracker.org_Audio CD\#_006_Kudsi Erguner - Ottomania (1999)\Kudsi Erguner - Ottomania (1999)\04 - Free space.flac
Extracted successfully
Conclusion: this track is CDDA with probability 100%
Tempfile successfully deleted.
5 -===- L:\rutracker.org_Audio CD\#_006_Kudsi Erguner - Ottomania (1999)\Kudsi Erguner - Ottomania (1999)\05 - Nefes.flac
Extracted successfully
Conclusion: this track is CDDA with probability 99%
Tempfile successfully deleted.
6 -===- L:\rutracker.org_Audio CD\#_006_Kudsi Erguner - Ottomania (1999)\Kudsi Erguner - Ottomania (1999)\06 - Hi-Jaz.flac
Extracted successfully
Conclusion: this track is CDDA with probability 100%
Tempfile successfully deleted.
Finished at: суббота, 14. 01. 2012. - 21:34.01 (operation time: 0:05.42)
... релизы лейбла ACT Music на трекере ...


Смотри также:
1999 Kudsi Erguner - Ottomania readab
2001 Kudsi Erguner - Islam Blues max cherry
2008 Mark Nauseef / Kudsi Erguner / Markus Stockhausen / Bill Laswell - No Matter ivoronen
01:54
434
Нет комментариев. Ваш будет первым!