Поиск

(Ethnic Jazz) Amos Hoffman - Na'ama - 2006, FLAC (tracks+.cue), lossless

Треклист:
Amos Hoffman - Na'ama
Rock - Made In Israel (Каталог раздач)
Jazz - Made In Israel (Каталог раздач)
Жанр: Ethno Jazz
Дата выпуска: 2006
Производитель диска, страна: Magda Records (MGD 053), Israel
Аудио кодек: FLAC
Тип рипа: (tracks + .cue)
Битрейт аудио: lossless
Включает: Full artwork
Источник: Моя коллекция
Риппер: Мой рип
Трэклист:
1) Third King - 6:37
2) Takasim Nahawand - 3:26
3) Samai Nahawand - 3:53
4) Kiryat HaYovel - 5:59
5) Na'ama - 3:54
6) Takasim Higas - 2:45
7) Takasim Rast - 3:17
8) Samai Siga - 3:42
9) Longa Abu Nlusa - 4:15
10) Takasim Ray at - 3:08
11) Shargia - 2:44
12) Lonely Sands - 3:18
All music composed and arranged by Amos Hoffman
Об исполнителе:
http://www.myspace.com/amoshoffman
http://www.amoshoffman.com/
http://www.allaboutjazz.com/php/musician.php?id=16745
Об альбоме:
http://www.allaboutjazz.com/php/article.php?id=21872
Состав:
Amos Hoffman - Oud
Joshua Levit - Ney
Omer Avital - Contrabass
Ehab Nimer - Violin
Tomer Tzur - Percussion
Rea Bar Ness - Percussion & Marimba
Avishai Cohen - Contrabass on track 11
Этот же альбом в mp3 (320), сканы в jpg
 
EAC log
Exact Audio Copy V0.99 prebeta 4 from 23. January 2008
EAC extraction logfile from 5. April 2009, 21:06
Amos Hoffman / Na'ama
Used drive : PIONEER DVD-RW DVR-112D Adapter: 0 ID: 0
Read mode : Secure
Utilize accurate stream : Yes
Defeat audio cache : Yes
Make use of C2 pointers : No
Read offset correction : 48
Overread into Lead-In and Lead-Out : No
Fill up missing offset samples with silence : Yes
Delete leading and trailing silent blocks : No
Null samples used in CRC calculations : Yes
Used interface : Installed external ASPI interface
Gap handling : Appended to previous track
Used output format : User Defined Encoder
Selected bitrate : 320 kBit/s
Quality : High
Add ID3 tag : Yes
Command line compressor : C:\Program Files\Exact Audio Copy\Flac\flac.exe
Additional command line options : -V -8 -T "artist=%a" -T "title=%t" -T "album=%g" -T "date=%y" -T "tracknumber=%n" -T "genre=%m" %s
TOC of the extracted CD
Track | Start | Length | Start sector | End sector
---------------------------------------------------------
1 | 0:00.00 | 6:39.29 | 0 | 29953
2 | 6:39.29 | 3:28.32 | 29954 | 45585
3 | 10:07.61 | 3:55.28 | 45586 | 63238
4 | 14:03.14 | 6:01.42 | 63239 | 90355
5 | 20:04.56 | 3:56.17 | 90356 | 108072
6 | 24:00.73 | 2:47.14 | 108073 | 120611
7 | 26:48.12 | 3:20.06 | 120612 | 135617
8 | 30:08.18 | 3:44.45 | 135618 | 152462
9 | 33:52.63 | 4:17.27 | 152463 | 171764
10 | 38:10.15 | 3:10.27 | 171765 | 186041
11 | 41:20.42 | 2:47.10 | 186042 | 198576
12 | 44:07.52 | 3:18.63 | 198577 | 213489
Track 1
Filename D:\music\rip\Amos Hoffman - Na'ama (2006) {Amos Hoffman, Magda}\01 - Third King.wav
Pre-gap length 0:00:02.00
Peak level 97.7 %
Track quality 100.0 %
Test CRC 3C99B8AA
Copy CRC 3C99B8AA
Track not present in AccurateRip database
Copy OK
Track 2
Filename D:\music\rip\Amos Hoffman - Na'ama (2006) {Amos Hoffman, Magda}\02 - Takasim Nohawand.wav
Pre-gap length 0:00:02.00
Peak level 87.8 %
Track quality 100.0 %
Test CRC DDD2028F
Copy CRC DDD2028F
Track not present in AccurateRip database
Copy OK
Track 3
Filename D:\music\rip\Amos Hoffman - Na'ama (2006) {Amos Hoffman, Magda}\03 - Samai Nahawand.wav
Pre-gap length 0:00:02.00
Peak level 81.6 %
Track quality 100.0 %
Test CRC A8D63873
Copy CRC A8D63873
Track not present in AccurateRip database
Copy OK
Track 4
Filename D:\music\rip\Amos Hoffman - Na'ama (2006) {Amos Hoffman, Magda}\04 - Kiryat HaYovel.wav
Pre-gap length 0:00:02.00
Peak level 85.8 %
Track quality 100.0 %
Test CRC 0112B71C
Copy CRC 0112B71C
Track not present in AccurateRip database
Copy OK
Track 5
Filename D:\music\rip\Amos Hoffman - Na'ama (2006) {Amos Hoffman, Magda}\05 - Na'ama.wav
Pre-gap length 0:00:02.40
Peak level 56.5 %
Track quality 100.0 %
Test CRC C03D9172
Copy CRC C03D9172
Track not present in AccurateRip database
Copy OK
Track 6
Filename D:\music\rip\Amos Hoffman - Na'ama (2006) {Amos Hoffman, Magda}\06 - Takasim Higas.wav
Pre-gap length 0:00:02.00
Peak level 72.0 %
Track quality 100.0 %
Test CRC 6EBC651B
Copy CRC 6EBC651B
Track not present in AccurateRip database
Copy OK
Track 7
Filename D:\music\rip\Amos Hoffman - Na'ama (2006) {Amos Hoffman, Magda}\07 - Takasim Rast.wav
Pre-gap length 0:00:02.00
Peak level 88.8 %
Track quality 100.0 %
Test CRC C9718116
Copy CRC C9718116
Track not present in AccurateRip database
Copy OK
Track 8
Filename D:\music\rip\Amos Hoffman - Na'ama (2006) {Amos Hoffman, Magda}\08 - Samai Siga.wav
Pre-gap length 0:00:02.00
Peak level 93.4 %
Track quality 100.0 %
Test CRC C752F426
Copy CRC C752F426
Track not present in AccurateRip database
Copy OK
Track 9
Filename D:\music\rip\Amos Hoffman - Na'ama (2006) {Amos Hoffman, Magda}\09 - Langa Abu Musa.wav
Pre-gap length 0:00:02.00
Peak level 93.2 %
Track quality 99.9 %
Test CRC EDB4283C
Copy CRC EDB4283C
Track not present in AccurateRip database
Copy OK
Track 10
Filename D:\music\rip\Amos Hoffman - Na'ama (2006) {Amos Hoffman, Magda}\10 - Takasim Rayat.wav
Pre-gap length 0:00:02.00
Peak level 95.2 %
Track quality 100.0 %
Test CRC 03A7CC5A
Copy CRC 03A7CC5A
Track not present in AccurateRip database
Copy OK
Track 11
Filename D:\music\rip\Amos Hoffman - Na'ama (2006) {Amos Hoffman, Magda}\11 - Shargia.wav
Pre-gap length 0:00:02.00
Peak level 70.3 %
Track quality 100.0 %
Test CRC 097B5F5F
Copy CRC 097B5F5F
Track not present in AccurateRip database
Copy OK
Track 12
Filename D:\music\rip\Amos Hoffman - Na'ama (2006) {Amos Hoffman, Magda}\12 - Lonely Sands.wav
Pre-gap length 0:00:02.04
Peak level 70.4 %
Track quality 100.0 %
Test CRC FC7BAC65
Copy CRC FC7BAC65
Track not present in AccurateRip database
Copy OK
None of the tracks are present in the AccurateRip database
No errors occurred
End of status report
 
Tau
Я не сидирую все свои раздачи подолгу, только новые (до 3х первых сидов)
Предлагаю скачавшим максимально долго оставаться на раздаче - весь рейтинг будет ваш
Если нет сидов или раздача находится в архиве, пришлите письмо, и я вернусь
07:52
325
Нет комментариев. Ваш будет первым!