Поиск

(Latin Jazz / Bossa Nova, Vocal Jazz) Rosalia De Souza - Brasil Precisa Balancar - 2005 [Japanese Edition], FLAC (tracks+.cue), lossless

(Latin Jazz / Bossa Nova, Vocal Jazz) Rosalia De Souza - Brasil Precisa Balancar - 2005 [Japanese Edition], FLAC (tracks+.cue), lossless
Треклист:
Rosalia De Souza - Brasil Precisa Balancar [ Japanese Edition]
Жанр: Latin Jazz / Bossa Nova, Vocal Jazz
Лейбл: Schema
Год выпуска : 2005
Аудио кодек: FLAC
Тип рипа: tracks+.cue
Битрейт аудио: lossless
Продолжительность: 00:56:22
Рип: What CD


01. Onde Anda O Meu Amor (3:37)
02. Voz Da Lapa (4:00)
03. Que Bandeira (2:56)
04. Ao Amigo Tom (2:42)
05. Brasil Precisa Balançar (3:41)
06. Fogo De Roda (3:08)
07. Agarradinho (4:40)
08. Nem Que Sefa A Nado Feat.Toco (2:40)
09. Rio De Janeiro (3:08)
10. Mar Amar (2:11)
11. Um Novo Dia (4:41)
12. Vio Sonhando (2:34)
13. O Que É Amar (2:49)
14. Que Bandeira (Gerardo Frisina Remix) (6:25)
15. Adriana (Performed by The Five Corners Quintet) (7:11)

 
EAC
Exact Audio Copy V0.99 prebeta 4 from 23. January 2008
EAC extraction logfile from 19. April 2009, 9:16
Rosalia De Souza / Brasil Precisa Balanзar
Used drive : _NEC DVD_RW ND-1300A Adapter: 1 ID: 0
Read mode : Secure
Utilize accurate stream : Yes
Defeat audio cache : Yes
Make use of C2 pointers : No
Read offset correction : 48
Overread into Lead-In and Lead-Out : No
Fill up missing offset samples with silence : Yes
Delete leading and trailing silent blocks : No
Null samples used in CRC calculations : Yes
Used interface : Native Win32 interface for Win NT & 2000
Gap handling : Appended to previous track
Used output format : User Defined Encoder
Selected bitrate : 768 kBit/s
Quality : High
Add ID3 tag : No
Command line compressor : C:\Programfiler\FLAC\flac.exe
Additional command line options : -V -8 -T "artist=%a" -T "title=%t" -T "album=%g" -T "date=%y" -T "tracknumber=%n" -T "genre=%m" %s
TOC of the extracted CD
Track | Start | Length | Start sector | End sector
---------------------------------------------------------
1 | 0:00.00 | 3:36.41 | 0 | 16240
2 | 3:36.41 | 4:00.03 | 16241 | 34243
3 | 7:36.44 | 2:56.29 | 34244 | 47472
4 | 10:32.73 | 2:41.53 | 47473 | 59600
5 | 13:14.51 | 3:41.01 | 59601 | 76176
6 | 16:55.52 | 3:07.68 | 76177 | 90269
7 | 20:03.45 | 4:40.03 | 90270 | 111272
8 | 24:43.48 | 2:40.36 | 111273 | 123308
9 | 27:24.09 | 3:07.66 | 123309 | 137399
10 | 30:32.00 | 2:10.72 | 137400 | 147221
11 | 32:42.72 | 4:41.02 | 147222 | 168298
12 | 37:23.74 | 2:34.08 | 168299 | 179856
13 | 39:58.07 | 2:48.44 | 179857 | 192500
14 | 42:46.51 | 6:24.54 | 192501 | 221354
15 | 49:11.30 | 7:11.26 | 221355 | 253705
Track 1
Filename C:\EAC rips\Rosalia De Souza - 2005 - Brasil Precisa Balanзar\01 - Onde Anda O Meu Amor.wav
Pre-gap length 0:00:02.00
Peak level 98.8 %
Track quality 100.0 %
Test CRC 9271A6F3
Copy CRC 9271A6F3
Track not present in AccurateRip database
Copy OK
Track 2
Filename C:\EAC rips\Rosalia De Souza - 2005 - Brasil Precisa Balanзar\02 - Voz Da Lapa.wav
Pre-gap length 0:00:00.30
Peak level 99.9 %
Track quality 100.0 %
Test CRC F691658F
Copy CRC F691658F
Track not present in AccurateRip database
Copy OK
Track 3
Filename C:\EAC rips\Rosalia De Souza - 2005 - Brasil Precisa Balanзar\03 - Que Bandeira.wav
Pre-gap length 0:00:01.30
Peak level 99.9 %
Track quality 100.0 %
Test CRC 1C7F6852
Copy CRC 1C7F6852
Track not present in AccurateRip database
Copy OK
Track 4
Filename C:\EAC rips\Rosalia De Souza - 2005 - Brasil Precisa Balanзar\04 - Ao Amigo Tom.wav
Pre-gap length 0:00:00.55
Peak level 99.9 %
Track quality 99.9 %
Test CRC F397D60E
Copy CRC F397D60E
Track not present in AccurateRip database
Copy OK
Track 5
Filename C:\EAC rips\Rosalia De Souza - 2005 - Brasil Precisa Balanзar\05 - Brasil Precisa Balanзar.wav
Pre-gap length 0:00:00.44
Peak level 99.9 %
Track quality 100.0 %
Test CRC AA532491
Copy CRC AA532491
Track not present in AccurateRip database
Copy OK
Track 6
Filename C:\EAC rips\Rosalia De Souza - 2005 - Brasil Precisa Balanзar\06 - Fogo De Roda.wav
Pre-gap length 0:00:00.43
Peak level 99.9 %
Track quality 100.0 %
Test CRC 70868B46
Copy CRC 70868B46
Track not present in AccurateRip database
Copy OK
Track 7
Filename C:\EAC rips\Rosalia De Souza - 2005 - Brasil Precisa Balanзar\07 - Agarradinho.wav
Peak level 99.9 %
Track quality 100.0 %
Test CRC DCDCFEEE
Copy CRC DCDCFEEE
Track not present in AccurateRip database
Copy OK
Track 8
Filename C:\EAC rips\Rosalia De Souza - 2005 - Brasil Precisa Balanзar\08 - Nem Que Sefa A Nado Feat.Toco.wav
Peak level 99.9 %
Track quality 100.0 %
Test CRC 9C043FDE
Copy CRC 9C043FDE
Track not present in AccurateRip database
Copy OK
Track 9
Filename C:\EAC rips\Rosalia De Souza - 2005 - Brasil Precisa Balanзar\09 - Rio De Janeiro.wav
Peak level 99.9 %
Track quality 100.0 %
Test CRC BDD61102
Copy CRC BDD61102
Track not present in AccurateRip database
Copy OK
Track 10
Filename C:\EAC rips\Rosalia De Souza - 2005 - Brasil Precisa Balanзar\10 - Mar Amar.wav
Pre-gap length 0:00:00.73
Peak level 99.9 %
Track quality 100.0 %
Test CRC BF297BAC
Copy CRC BF297BAC
Track not present in AccurateRip database
Copy OK
Track 11
Filename C:\EAC rips\Rosalia De Souza - 2005 - Brasil Precisa Balanзar\11 - Um Novo Dia.wav
Pre-gap length 0:00:00.49
Peak level 97.7 %
Track quality 100.0 %
Test CRC 65302EA4
Copy CRC 65302EA4
Track not present in AccurateRip database
Copy OK
Track 12
Filename C:\EAC rips\Rosalia De Souza - 2005 - Brasil Precisa Balanзar\12 - Vio Sonhando.wav
Pre-gap length 0:00:00.35
Peak level 99.9 %
Track quality 100.0 %
Test CRC 16651885
Copy CRC 16651885
Track not present in AccurateRip database
Copy OK
Track 13
Filename C:\EAC rips\Rosalia De Souza - 2005 - Brasil Precisa Balanзar\13 - O Que Й Amar.wav
Pre-gap length 0:00:00.66
Peak level 84.5 %
Track quality 100.0 %
Test CRC 07DE18F2
Copy CRC 07DE18F2
Track not present in AccurateRip database
Copy OK
Track 14
Filename C:\EAC rips\Rosalia De Souza - 2005 - Brasil Precisa Balanзar\14 - Que Bandeira (Gerardo Frisina Remix).wav
Pre-gap length 0:00:01.53
Peak level 93.5 %
Track quality 99.9 %
Test CRC 6431C698
Copy CRC 6431C698
Track not present in AccurateRip database
Copy OK
Track 15
Filename C:\EAC rips\Rosalia De Souza - 2005 - Brasil Precisa Balanзar\15 - Adriana (Performed by The Five Corners Quintet).wav
Pre-gap length 0:00:00.54
Peak level 95.8 %
Track quality 99.9 %
Test CRC 95BE97A5
Copy CRC 95BE97A5
Track not present in AccurateRip database
Copy OK
None of the tracks are present in the AccurateRip database
No errors occurred
End of status report
 
CUE
REM GENRE Latin
REM DATE 2005
REM DISCID D40D360F
REM COMMENT "ExactAudioCopy v0.99pb4"
FILE "01 - Onde Anda O Meu Amor.flac" WAVE
TRACK 01 AUDIO
INDEX 01 00:00:00
TRACK 02 AUDIO
INDEX 00 03:36:11
FILE "02 - Voz Da Lapa.flac" WAVE
INDEX 01 00:00:00
TRACK 03 AUDIO
INDEX 00 03:58:48
FILE "03 - Que Bandeira.flac" WAVE
INDEX 01 00:00:00
TRACK 04 AUDIO
INDEX 00 02:55:49
FILE "04 - Ao Amigo Tom.flac" WAVE
INDEX 01 00:00:00
TRACK 05 AUDIO
INDEX 00 02:41:09
FILE "05 - Brasil Precisa Balanзar.flac" WAVE
INDEX 01 00:00:00
TRACK 06 AUDIO
INDEX 00 03:40:33
FILE "06 - Fogo De Roda.flac" WAVE
INDEX 01 00:00:00
FILE "07 - Agarradinho.flac" WAVE
TRACK 07 AUDIO
INDEX 01 00:00:00
FILE "08 - Nem Que Sefa A Nado Feat.Toco.flac" WAVE
TRACK 08 AUDIO
INDEX 01 00:00:00
FILE "09 - Rio De Janeiro.flac" WAVE
TRACK 09 AUDIO
INDEX 01 00:00:00
TRACK 10 AUDIO
INDEX 00 03:06:68
FILE "10 - Mar Amar.flac" WAVE
INDEX 01 00:00:00
TRACK 11 AUDIO
INDEX 00 02:10:23
FILE "11 - Um Novo Dia.flac" WAVE
INDEX 01 00:00:00
TRACK 12 AUDIO
INDEX 00 04:40:42
FILE "12 - Vio Sonhando.flac" WAVE
INDEX 01 00:00:00
TRACK 13 AUDIO
INDEX 00 02:33:17
FILE "13 - O Que Й Amar.flac" WAVE
INDEX 01 00:00:00
TRACK 14 AUDIO
INDEX 00 02:46:66
FILE "14 - Que Bandeira (Gerardo Frisina Remix).flac" WAVE
INDEX 01 00:00:00
TRACK 15 AUDIO
INDEX 00 06:24:00
FILE "15 - Adriana (Performed by The Five Corners Quintet).flac" WAVE
INDEX 01 00:00:00

Rosalia De Souza - D'improvviso - 2009
06:52
409
Нет комментариев. Ваш будет первым!