Вы используете незарегистрированную версию компонента "Вкладки"!

Поиск

(ethnic, improvisation) George Haslam - Argentine Adventures 1994, FLAC (tracks+.cue), lossless

(ethnic, improvisation) George Haslam - Argentine Adventures 1994, FLAC (tracks+.cue), lossless
Треклист:


George Haslam - Argentine Adventures 1994

Жанр: ethnic, improvisation
Год выпуска: 1994
Издатель (лейбл):SLAM / SLAMCD304
Формат: FLAC (tracks+.cue)
Битрейт аудио: lossless
Продолжительность 1`07`52
Источник: what.cd, fr4nkz4pping

tracks

01 - Tinto Dreams
02 - Ritmo Catulo Castillo
03 - Vidala Para M Sombra
04 - Los Muchachos De Buenos Aires
05 - Vidala Para Mi Sombra
06 - Welcome George
07 - Las Quenas De Barragan
08 - Bailando Con Los Raices
09 - Affirmation


 
.log
X Lossless Decoder version 20100904 (120.7)
XLD extraction logfile from 2010-09-06 06:14:03 +0100
George Haslam / Argentine Adventures
Used drive : TSSTcorp CD/DVDW SH-S182M (revision SB03)
Use cdparanoia mode : YES (CDParanoia III 10.2 engine)
Disable audio cache : OK for the drive with cache less than 2750KB
Make use of C2 pointers : NO
Read offset correction : 6
Max retry count : 100
Gap status : Analyzed, Appended
TOC of the extracted CD
Track | Start | Length | Start sector | End sector
---------------------------------------------------------
1 | 00:00:33 | 05:53:40 | 33 | 26547
2 | 05:53:73 | 11:26:62 | 26548 | 78059
3 | 17:20:60 | 05:42:10 | 78060 | 103719
4 | 23:02:70 | 11:57:73 | 103720 | 157567
5 | 35:00:68 | 06:43:32 | 157568 | 187824
6 | 41:44:25 | 06:03:00 | 187825 | 215049
7 | 47:47:25 | 05:44:55 | 215050 | 240904
8 | 53:32:05 | 06:05:40 | 240905 | 268319
9 | 59:37:45 | 08:14:63 | 268320 | 305432
All Tracks
Album gain : -2.71 dB
Peak : 0.969604
Track 01
Filename : /Volumes/1.5/Uploads/inProgress/_______music/George Haslam-1994-Argentine Adventures In Jazz, Ethnic And Improvised Musics/01 - Tinto Dreams.flac
Pre-gap length : 00:02:33
Track gain : -2.99 dB
Peak : 0.940155
CRC32 hash (test run) : 71D8AB12
CRC32 hash : 71D8AB12
CRC32 hash (skip zero) : B9AE8724
AccurateRip signature : E76C2551
->Track not present in AccurateRip database.
Statistics
Read error : 0
Skipped (treated as error) : 0
Edge jitter error (maybe fixed) : 0
Atom jitter error (maybe fixed) : 0
Drift error (maybe fixed) : 0
Dropped bytes error (maybe fixed) : 0
Duplicated bytes error (maybe fixed) : 0
Inconsistency in error sectors : 0
Track 02
Filename : /Volumes/1.5/Uploads/inProgress/_______music/George Haslam-1994-Argentine Adventures In Jazz, Ethnic And Improvised Musics/02 - Ritmo Catulo Castillo.flac
Pre-gap length : 00:02:30
Track gain : -3.05 dB
Peak : 0.939972
CRC32 hash (test run) : 8FA513BB
CRC32 hash : 8FA513BB
CRC32 hash (skip zero) : DF9EE128
AccurateRip signature : 8F88817D
->Track not present in AccurateRip database.
Statistics
Read error : 0
Skipped (treated as error) : 0
Edge jitter error (maybe fixed) : 0
Atom jitter error (maybe fixed) : 0
Drift error (maybe fixed) : 0
Dropped bytes error (maybe fixed) : 0
Duplicated bytes error (maybe fixed) : 0
Inconsistency in error sectors : 0
Track 03
Filename : /Volumes/1.5/Uploads/inProgress/_______music/George Haslam-1994-Argentine Adventures In Jazz, Ethnic And Improvised Musics/03 - Vidala Para M Sombra.flac
Pre-gap length : 00:02:37
Track gain : -1.14 dB
Peak : 0.816681
CRC32 hash (test run) : F4352230
CRC32 hash : F4352230
CRC32 hash (skip zero) : D9DF13BA
AccurateRip signature : 86DA4683
->Track not present in AccurateRip database.
Statistics
Read error : 0
Skipped (treated as error) : 0
Edge jitter error (maybe fixed) : 0
Atom jitter error (maybe fixed) : 0
Drift error (maybe fixed) : 0
Dropped bytes error (maybe fixed) : 0
Duplicated bytes error (maybe fixed) : 0
Inconsistency in error sectors : 0
Track 04
Filename : /Volumes/1.5/Uploads/inProgress/_______music/George Haslam-1994-Argentine Adventures In Jazz, Ethnic And Improvised Musics/04 - Los Muchachos De Buenos Aires.flac
Pre-gap length : 00:02:12
Track gain : -1.74 dB
Peak : 0.921051
CRC32 hash (test run) : 1F263E69
CRC32 hash : 1F263E69
CRC32 hash (skip zero) : 661B0E4A
AccurateRip signature : 92FD71EF
->Track not present in AccurateRip database.
Statistics
Read error : 0
Skipped (treated as error) : 0
Edge jitter error (maybe fixed) : 0
Atom jitter error (maybe fixed) : 0
Drift error (maybe fixed) : 0
Dropped bytes error (maybe fixed) : 0
Duplicated bytes error (maybe fixed) : 0
Inconsistency in error sectors : 0
Track 05
Filename : /Volumes/1.5/Uploads/inProgress/_______music/George Haslam-1994-Argentine Adventures In Jazz, Ethnic And Improvised Musics/05 - Vidala Para Mi Sombra.flac
Pre-gap length : 00:01:73
Track gain : -2.60 dB
Peak : 0.841858
CRC32 hash (test run) : B4641EEC
CRC32 hash : B4641EEC
CRC32 hash (skip zero) : 2C3BE4B8
AccurateRip signature : 177C8500
->Track not present in AccurateRip database.
Statistics
Read error : 0
Skipped (treated as error) : 0
Edge jitter error (maybe fixed) : 0
Atom jitter error (maybe fixed) : 0
Drift error (maybe fixed) : 0
Dropped bytes error (maybe fixed) : 0
Duplicated bytes error (maybe fixed) : 0
Inconsistency in error sectors : 0
Track 06
Filename : /Volumes/1.5/Uploads/inProgress/_______music/George Haslam-1994-Argentine Adventures In Jazz, Ethnic And Improvised Musics/06 - Welcome George.flac
Pre-gap length : 00:02:50
Track gain : -1.38 dB
Peak : 0.918640
CRC32 hash (test run) : F2571C34
CRC32 hash : F2571C34
CRC32 hash (skip zero) : 95285E03
AccurateRip signature : B03FC8E4
->Track not present in AccurateRip database.
Statistics
Read error : 0
Skipped (treated as error) : 0
Edge jitter error (maybe fixed) : 0
Atom jitter error (maybe fixed) : 0
Drift error (maybe fixed) : 0
Dropped bytes error (maybe fixed) : 0
Duplicated bytes error (maybe fixed) : 0
Inconsistency in error sectors : 0
Track 07
Filename : /Volumes/1.5/Uploads/inProgress/_______music/George Haslam-1994-Argentine Adventures In Jazz, Ethnic And Improvised Musics/07 - Las Quenas De Barragan.flac
Pre-gap length : 00:03:02
Track gain : -1.37 dB
Peak : 0.910187
CRC32 hash (test run) : 1A0E1998
CRC32 hash : 1A0E1998
CRC32 hash (skip zero) : 84571827
AccurateRip signature : 9C426122
->Track not present in AccurateRip database.
Statistics
Read error : 0
Skipped (treated as error) : 0
Edge jitter error (maybe fixed) : 0
Atom jitter error (maybe fixed) : 0
Drift error (maybe fixed) : 0
Dropped bytes error (maybe fixed) : 0
Duplicated bytes error (maybe fixed) : 0
Inconsistency in error sectors : 0
Track 08
Filename : /Volumes/1.5/Uploads/inProgress/_______music/George Haslam-1994-Argentine Adventures In Jazz, Ethnic And Improvised Musics/08 - Bailando Con Los Raices.flac
Pre-gap length : 00:01:70
Track gain : -3.56 dB
Peak : 0.960205
CRC32 hash (test run) : 8EF31061
CRC32 hash : 8EF31061
CRC32 hash (skip zero) : 33322642
AccurateRip signature : 33AB64B4
->Track not present in AccurateRip database.
Statistics
Read error : 0
Skipped (treated as error) : 0
Edge jitter error (maybe fixed) : 0
Atom jitter error (maybe fixed) : 0
Drift error (maybe fixed) : 0
Dropped bytes error (maybe fixed) : 0
Duplicated bytes error (maybe fixed) : 0
Inconsistency in error sectors : 0
Track 09
Filename : /Volumes/1.5/Uploads/inProgress/_______music/George Haslam-1994-Argentine Adventures In Jazz, Ethnic And Improvised Musics/09 - Affirmation.flac
Pre-gap length : 00:01:07
Track gain : -4.38 dB
Peak : 0.969604
CRC32 hash (test run) : C0278561
CRC32 hash : C0278561
CRC32 hash (skip zero) : F017C03C
AccurateRip signature : 66BD82F9
->Track not present in AccurateRip database.
Statistics
Read error : 0
Skipped (treated as error) : 0
Edge jitter error (maybe fixed) : 0
Atom jitter error (maybe fixed) : 0
Drift error (maybe fixed) : 0
Dropped bytes error (maybe fixed) : 0
Duplicated bytes error (maybe fixed) : 0
Inconsistency in error sectors : 0
No errors occurred
End of status report
 
.cue
TITLE "Argentine Adventures"
PERFORMER "George Haslam"
REM GENRE "Jazz"
REM DATE 1994
REM DISCID 730FE809
REM REPLAYGAIN_ALBUM_GAIN -2.71 dB
REM REPLAYGAIN_ALBUM_PEAK 0.969604
FILE "01 - Tinto Dreams.wav" WAVE
TRACK 01 AUDIO
TITLE "Tinto Dreams"
ISRC GBACM9400001
REM REPLAYGAIN_TRACK_GAIN -2.99 dB
REM REPLAYGAIN_TRACK_PEAK 0.940155
INDEX 00 00:00:00
INDEX 01 00:00:33
TRACK 02 AUDIO
TITLE "Ritmo Catulo Castillo"
ISRC GBACM9400002
REM REPLAYGAIN_TRACK_GAIN -3.05 dB
REM REPLAYGAIN_TRACK_PEAK 0.939972
INDEX 00 05:51:10
FILE "02 - Ritmo Catulo Castillo.wav" WAVE
INDEX 01 00:00:00
TRACK 03 AUDIO
TITLE "Vidala Para M Sombra"
ISRC GBACM9400003
REM REPLAYGAIN_TRACK_GAIN -1.14 dB
REM REPLAYGAIN_TRACK_PEAK 0.816681
INDEX 00 11:24:25
FILE "03 - Vidala Para M Sombra.wav" WAVE
INDEX 01 00:00:00
TRACK 04 AUDIO
TITLE "Los Muchachos De Buenos Aires"
ISRC GBACM9400004
REM REPLAYGAIN_TRACK_GAIN -1.74 dB
REM REPLAYGAIN_TRACK_PEAK 0.921051
INDEX 00 05:39:73
FILE "04 - Los Muchachos De Buenos Aires.wav" WAVE
INDEX 01 00:00:00
TRACK 05 AUDIO
TITLE "Vidala Para Mi Sombra"
ISRC GBACM9400005
REM REPLAYGAIN_TRACK_GAIN -2.60 dB
REM REPLAYGAIN_TRACK_PEAK 0.841858
INDEX 00 11:56:00
FILE "05 - Vidala Para Mi Sombra.wav" WAVE
INDEX 01 00:00:00
TRACK 06 AUDIO
TITLE "Welcome George"
ISRC GBACM9400006
REM REPLAYGAIN_TRACK_GAIN -1.38 dB
REM REPLAYGAIN_TRACK_PEAK 0.918640
INDEX 00 06:40:57
FILE "06 - Welcome George.wav" WAVE
INDEX 01 00:00:00
TRACK 07 AUDIO
TITLE "Las Quenas De Barragan"
ISRC GBACM9400007
REM REPLAYGAIN_TRACK_GAIN -1.37 dB
REM REPLAYGAIN_TRACK_PEAK 0.910187
INDEX 00 05:59:73
FILE "07 - Las Quenas De Barragan.wav" WAVE
INDEX 01 00:00:00
TRACK 08 AUDIO
TITLE "Bailando Con Los Raices"
ISRC GBACM9400008
REM REPLAYGAIN_TRACK_GAIN -3.56 dB
REM REPLAYGAIN_TRACK_PEAK 0.960205
INDEX 00 05:42:60
FILE "08 - Bailando Con Los Raices.wav" WAVE
INDEX 01 00:00:00
TRACK 09 AUDIO
TITLE "Affirmation"
ISRC GBACM9400009
REM REPLAYGAIN_TRACK_GAIN -4.38 dB
REM REPLAYGAIN_TRACK_PEAK 0.969604
INDEX 00 06:04:33
FILE "09 - Affirmation.wav" WAVE
INDEX 01 00:00:00

другие релизы
По всем вопросам пишите личное сообщение пользователю M0p94ok.
16:29
206
Нет комментариев. Ваш будет первым!