Вы используете незарегистрированную версию компонента "Вкладки"!

Поиск

(Free Improvisation, Modern Creative, Altri Suoni) Nicolas Masson - Awake - 2002, FLAC (tracks+.cue), lossless

(Free Improvisation, Modern Creative, Altri Suoni) Nicolas Masson - Awake - 2002, FLAC (tracks+.cue), lossless
Треклист:
Nicolas Masson / Awake
Жанр: Free Improvisation, Modern Creative
Страна-производитель диска: Switzerland
Год издания: 2002
Издатель (лейбл): Altri Suoni
Номер по каталогу: AS 096
Аудиокодек: FLAC (*.flac)
Тип рипа: tracks+.cue
Битрейт аудио: lossless
Продолжительность: 1:01:43
Источник (релизер): Max Monteiro
Наличие сканов в содержимом раздачи: нет
Треклист:
1. Phoenix 5:50
2. I Don’t Remember 4:11
3. Magnolia 8:29
4. Khas Baator 7:33
5. Sboink 10:24
6. Maboroshi 7:55
7. Dream Piece 5:52
8. Awake 11:30
All compositions by Nicolas Masson.
Recorded June 13, 2001 at PKRS in Brooklyn NY.
Nicolas Masson – Saxophone
Russ Johnson – Trumpet
Eivind Opsvik – Bass
Mark Ferber – Drums
 
Лог создания рипа
Exact Audio Copy V1.0 beta 3 from 29. August 2011
EAC extraction logfile from 13. July 2013, 17:59
Nicolas Masson / Awake
Used drive : SlimtypeeNAU508 5 Adapter: 1 ID: 0
Read mode : Secure
Utilize accurate stream : Yes
Defeat audio cache : Yes
Make use of C2 pointers : No
Read offset correction : 6
Overread into Lead-In and Lead-Out : No
Fill up missing offset samples with silence : Yes
Delete leading and trailing silent blocks : No
Null samples used in CRC calculations : Yes
Used interface : Native Win32 interface for Win NT & 2000
Gap handling : Appended to previous track
Used output format : User Defined Encoder
Selected bitrate : 768 kBit/s
Quality : High
Add ID3 tag : No
Command line compressor : C:\Program Files (x86)\Exact Audio Copy\Flac\flac.exe
Additional command line options : -8 -V -T "ARTIST=%artist%" -T "TITLE=%title%" -T "ALBUM=%albumtitle%" -T "DATE=%year%" -T "TRACKNUMBER=%tracknr%" -T "GENRE=%genre%" -T "PERFORMER=%albuminterpret%" -T "COMPOSER=%composer%" %haslyrics%--tag-from-file=LYRICS="%lyricsfile%"%haslyrics% -T "ALBUMARTIST=%albumartist%" -T "DISCNUMBER=%cdnumber%" -T "TOTALDISCS=%totalcds%" -T "TOTALTRACKS=%numtracks%" -T "COMMENT=%comment%" %source% -o %dest%
TOC of the extracted CD
Track | Start | Length | Start sector | End sector
---------------------------------------------------------
1 | 0:00.00 | 5:49.51 | 0 | 26225
2 | 5:49.51 | 4:11.18 | 26226 | 45068
3 | 10:00.69 | 8:29.10 | 45069 | 83253
4 | 18:30.04 | 7:32.46 | 83254 | 117199
5 | 26:02.50 | 10:23.39 | 117200 | 163963
6 | 36:26.14 | 7:54.38 | 163964 | 199551
7 | 44:20.52 | 5:52.31 | 199552 | 225982
8 | 50:13.08 | 11:29.47 | 225983 | 277704
Track 1
Filename C:\EAC rips\01 - Phoenix.wav
Pre-gap length 0:00:02.00
Peak level 99.9 %
Extraction speed 2.2 X
Track quality 100.0 %
Test CRC 3B60B2BE
Copy CRC 3B60B2BE
Track not present in AccurateRip database
Copy OK
Track 2
Filename C:\EAC rips\02 - I Don't Remember.wav
Pre-gap length 0:00:02.24
Peak level 52.1 %
Extraction speed 2.4 X
Track quality 100.0 %
Test CRC 96F2BA47
Copy CRC 96F2BA47
Track not present in AccurateRip database
Copy OK
Track 3
Filename C:\EAC rips\03 - Magnolia.wav
Pre-gap length 0:00:01.64
Peak level 88.9 %
Extraction speed 2.9 X
Track quality 100.0 %
Test CRC 07D169EB
Copy CRC 07D169EB
Track not present in AccurateRip database
Copy OK
Track 4
Filename C:\EAC rips\04 - Khas Baator.wav
Pre-gap length 0:00:01.53
Peak level 91.6 %
Extraction speed 3.3 X
Track quality 100.0 %
Test CRC 68CADD2C
Copy CRC 68CADD2C
Track not present in AccurateRip database
Copy OK
Track 5
Filename C:\EAC rips\05 - Sboink.wav
Pre-gap length 0:00:01.55
Peak level 80.5 %
Extraction speed 3.4 X
Track quality 99.9 %
Test CRC 6FDA403F
Copy CRC 6FDA403F
Track not present in AccurateRip database
Copy OK
Track 6
Filename C:\EAC rips\06 - Maboroshi.wav
Pre-gap length 0:00:01.71
Peak level 57.5 %
Extraction speed 4.0 X
Track quality 100.0 %
Test CRC 1C81FBAB
Copy CRC 1C81FBAB
Track not present in AccurateRip database
Copy OK
Track 7
Filename C:\EAC rips\07 - Dream Piece.wav
Pre-gap length 0:00:02.28
Peak level 80.0 %
Extraction speed 4.0 X
Track quality 100.0 %
Test CRC 2294D052
Copy CRC 2294D052
Track not present in AccurateRip database
Copy OK
Track 8
Filename C:\EAC rips\08 - Awake.wav
Pre-gap length 0:00:02.59
Peak level 97.8 %
Extraction speed 4.6 X
Track quality 100.0 %
Test CRC BE0BC7E3
Copy CRC BE0BC7E3
Track not present in AccurateRip database
Copy OK
None of the tracks are present in the AccurateRip database
No errors occurred
End of status report
---- CUETools DB Plugin V2.1.4
[CTDB TOCID: eNRutiCoj8hOjGy6kanJR766_7I-] disk not present in database
Submit result: eNRutiCoj8hOjGy6kanJR766_7I- has been uploaded
==== Log checksum 0B5FD1E2707344F310ECB507BB324387FDF0955DC5F1603988E6BD5D4C550A7A ====
 
Содержание индексной карты (.CUE)
REM GENRE Jazz
REM DATE 2002
REM DISCID 540E7608
REM COMMENT "ExactAudioCopy v1.0b3"
PERFORMER "Nicolas Masson"
TITLE "Awake"
FILE "01 - Phoenix.wav" WAVE
TRACK 01 AUDIO
TITLE "Phoenix"
PERFORMER "Nicolas Masson"
INDEX 01 00:00:00
TRACK 02 AUDIO
TITLE "I Don't Remember"
PERFORMER "Nicolas Masson"
INDEX 00 05:47:27
FILE "02 - I Don't Remember.wav" WAVE
INDEX 01 00:00:00
TRACK 03 AUDIO
TITLE "Magnolia"
PERFORMER "Nicolas Masson"
INDEX 00 04:09:29
FILE "03 - Magnolia.wav" WAVE
INDEX 01 00:00:00
TRACK 04 AUDIO
TITLE "Khas Baator"
PERFORMER "Nicolas Masson"
INDEX 00 08:27:32
FILE "04 - Khas Baator.wav" WAVE
INDEX 01 00:00:00
TRACK 05 AUDIO
TITLE "Sboink"
PERFORMER "Nicolas Masson"
INDEX 00 07:30:66
FILE "05 - Sboink.wav" WAVE
INDEX 01 00:00:00
TRACK 06 AUDIO
TITLE "Maboroshi"
PERFORMER "Nicolas Masson"
INDEX 00 10:21:43
FILE "06 - Maboroshi.wav" WAVE
INDEX 01 00:00:00
TRACK 07 AUDIO
TITLE "Dream Piece"
PERFORMER "Nicolas Masson"
INDEX 00 07:52:10
FILE "07 - Dream Piece.wav" WAVE
INDEX 01 00:00:00
TRACK 08 AUDIO
TITLE "Awake"
PERFORMER "Nicolas Masson"
INDEX 00 05:49:47
FILE "08 - Awake.wav" WAVE
INDEX 01 00:00:00
Any questions -> support@pro-jazz.com. По всем вопросам пишите -> support@pro-jazz.com
16:28
173
Нет комментариев. Ваш будет первым!