Вы используете незарегистрированную версию компонента "Вкладки"!

Поиск

(Avant-Garde Jazz, Noise, Free Improvisation) Borbetomagus - Zurich - 1985, FLAC (tracks+.cue), lossless

(Avant-Garde Jazz, Noise, Free Improvisation) Borbetomagus - Zurich - 1985, FLAC (tracks+.cue), lossless
Треклист:
Borbetomagus / Zurich
Жанр: Avant-Garde Jazz, Noise, Free Improvisation
Страна-производитель диска: US
Год издания: 2013
Издатель (лейбл): Agaric Records
Номер по каталогу: Ag 1984
Страна: US
Аудиокодек: FLAC (*.flac)
Тип рипа: tracks+.cue
Битрейт аудио: lossless
Продолжительность: 77:52
Источник (релизер): waffles.fm
Наличие сканов в содержимом раздачи:
Треклист:
1 Fleetwood DeKooning 18:00
2 Pink Pants 2:50
3 Ohne Fleisch Loaf 4:32
4 Ms. Fisch Brotchen 5:31
5 Fried Tampons 3:42
6 Schwarma Death 7:43
7 Nein Is The Loneliest Number 10:47
8 Elaine DeFleetwood 21:56
 
Лог создания рипа
Exact Audio Copy V1.0 beta 2 from 29. April 2011
EAC extraction logfile from 21. July 2013, 22:25
Borbetomagus / Zurich
Used drive : TSSTcorpDVD+-RW TS-H653G Adapter: 1 ID: 0
Read mode : Secure
Utilize accurate stream : Yes
Defeat audio cache : Yes
Make use of C2 pointers : No
Read offset correction : 6
Overread into Lead-In and Lead-Out : No
Fill up missing offset samples with silence : Yes
Delete leading and trailing silent blocks : No
Null samples used in CRC calculations : Yes
Used interface : Native Win32 interface for Win NT & 2000
Gap handling : Appended to previous track
Used output format : User Defined Encoder
Selected bitrate : 896 kBit/s
Quality : High
Add ID3 tag : No
Command line compressor : C:\Program Files (x86)\Exact Audio Copy\Flac\flac.exe
Additional command line options : -8 -V -T "ARTIST=%artist%" -T "TITLE=%title%" -T "ALBUM=%albumtitle%" -T "DATE=%year%" -T "TRACKNUMBER=%tracknr%" -T "GENRE=%genre%" -T "PERFORMER=%albuminterpret%" -T "COMPOSER=%composer%" %haslyrics%--tag-from-file=LYRICS
TOC of the extracted CD
Track | Start | Length | Start sector | End sector
---------------------------------------------------------
1 | 0:00.00 | 18:30.69 | 0 | 83318
2 | 18:30.69 | 3:02.47 | 83319 | 97015
3 | 21:33.41 | 4:52.68 | 97016 | 118983
4 | 26:26.34 | 5:45.68 | 118984 | 144926
5 | 32:12.27 | 3:50.04 | 144927 | 162180
6 | 36:02.31 | 8:41.02 | 162181 | 201257
7 | 44:43.33 | 10:51.02 | 201258 | 250084
8 | 55:34.35 | 22:17.73 | 250085 | 350432
Track 1
Filename C:\EAC Rips\Borbetomagus - Zurich (2013) [FLAC]\01 - Fleetwood DeKooning.wav
Pre-gap length 0:00:02.00
Peak level 96.8 %
Extraction speed 6.3 X
Track quality 100.0 %
Test CRC A1521799
Copy CRC A1521799
Track not present in AccurateRip database
Copy OK
Track 2
Filename C:\EAC Rips\Borbetomagus - Zurich (2013) [FLAC]\02 - Pink Pants.wav
Peak level 96.6 %
Extraction speed 6.3 X
Track quality 100.0 %
Test CRC E447A53D
Copy CRC E447A53D
Track not present in AccurateRip database
Copy OK
Track 3
Filename C:\EAC Rips\Borbetomagus - Zurich (2013) [FLAC]\03 - Ohne Fleisch Loaf.wav
Peak level 96.5 %
Extraction speed 7.0 X
Track quality 100.0 %
Test CRC 5630A53D
Copy CRC 5630A53D
Track not present in AccurateRip database
Copy OK
Track 4
Filename C:\EAC Rips\Borbetomagus - Zurich (2013) [FLAC]\04 - Ms. Fisch Brotchen.wav
Peak level 96.8 %
Extraction speed 6.4 X
Track quality 99.9 %
Test CRC BEA00D9F
Copy CRC BEA00D9F
Track not present in AccurateRip database
Copy OK
Track 5
Filename C:\EAC Rips\Borbetomagus - Zurich (2013) [FLAC]\05 - Fried Tampons.wav
Peak level 96.5 %
Extraction speed 6.0 X
Track quality 99.9 %
Test CRC 84B0BC82
Copy CRC 84B0BC82
Track not present in AccurateRip database
Copy OK
Track 6
Filename C:\EAC Rips\Borbetomagus - Zurich (2013) [FLAC]\06 - Schwarma Death.wav
Peak level 96.9 %
Extraction speed 8.7 X
Track quality 100.0 %
Test CRC 09DF3F89
Copy CRC 09DF3F89
Track not present in AccurateRip database
Copy OK
Track 7
Filename C:\EAC Rips\Borbetomagus - Zurich (2013) [FLAC]\07 - Nein Is The Loneliest Number.wav
Peak level 99.9 %
Extraction speed 8.5 X
Track quality 99.9 %
Test CRC 9AB06E8A
Copy CRC 9AB06E8A
Track not present in AccurateRip database
Copy OK
Track 8
Filename C:\EAC Rips\Borbetomagus - Zurich (2013) [FLAC]\08 - Elaine DeFleetwood.wav
Peak level 99.9 %
Extraction speed 10.2 X
Track quality 99.9 %
Test CRC 9616CA20
Copy CRC 9616CA20
Track not present in AccurateRip database
Copy OK
None of the tracks are present in the AccurateRip database
No errors occurred
End of status report
==== Log checksum 2CA309CCC760DEFCDE3C10E647E234FB1E94568CF8623ABED74984543FA731FC ====
 
Содержание индексной карты (.CUE)
REM GENRE Experimental
REM DATE 2013
REM DISCID 70124008
REM COMMENT "ExactAudioCopy v1.0b2"
PERFORMER "Borbetomagus"
TITLE "Zurich"
FILE "01 - Fleetwood DeKooning.wav" WAVE
TRACK 01 AUDIO
TITLE "Fleetwood DeKooning"
PERFORMER "Borbetomagus"
INDEX 01 00:00:00
FILE "02 - Pink Pants.wav" WAVE
TRACK 02 AUDIO
TITLE "Pink Pants"
PERFORMER "Borbetomagus"
INDEX 01 00:00:00
FILE "03 - Ohne Fleisch Loaf.wav" WAVE
TRACK 03 AUDIO
TITLE "Ohne Fleisch Loaf"
PERFORMER "Borbetomagus"
INDEX 01 00:00:00
FILE "04 - Ms. Fisch Brotchen.wav" WAVE
TRACK 04 AUDIO
TITLE "Ms. Fisch Brotchen"
PERFORMER "Borbetomagus"
INDEX 01 00:00:00
FILE "05 - Fried Tampons.wav" WAVE
TRACK 05 AUDIO
TITLE "Fried Tampons"
PERFORMER "Borbetomagus"
INDEX 01 00:00:00
FILE "06 - Schwarma Death.wav" WAVE
TRACK 06 AUDIO
TITLE "Schwarma Death"
PERFORMER "Borbetomagus"
INDEX 01 00:00:00
FILE "07 - Nein Is The Loneliest Number.wav" WAVE
TRACK 07 AUDIO
TITLE "Nein Is The Loneliest Number"
PERFORMER "Borbetomagus"
INDEX 01 00:00:00
FILE "08 - Elaine DeFleetwood.wav" WAVE
TRACK 08 AUDIO
TITLE "Elaine DeFleetwood"
PERFORMER "Borbetomagus"
INDEX 01 00:00:00
 
Лог проверки качества
d:\>d:\aucdtect -d/-m0 d:\zzz\*.wav
auCDtect: CD records authenticity detector, version 0.8.2
Copyright (c) 2004 Oleg Berngardt. All rights reserved.
Copyright (c) 2004 Alexander Djourik. All rights reserved.
------------------------------------------------------------
Processing file: [01. Fleetwood DeKooning.wav]
------------------------------------------------------------
This track looks like CDDA with probability 100%
------------------------------------------------------------
Processing file: [02. Pink Pants.wav]
------------------------------------------------------------
This track looks like CDDA with probability 100%
------------------------------------------------------------
Processing file: [03. Ohne Fleisch Loaf.wav]
------------------------------------------------------------
This track looks like CDDA with probability 100%
------------------------------------------------------------
Processing file: [04. Ms. Fisch Brotchen.wav]
------------------------------------------------------------
This track looks like CDDA with probability 100%
------------------------------------------------------------
Processing file: [05. Fried Tampons.wav]
------------------------------------------------------------
This track looks like CDDA with probability 100%
------------------------------------------------------------
Processing file: [06. Schwarma Death.wav]
------------------------------------------------------------
This track looks like CDDA with probability 54%
------------------------------------------------------------
Processing file: [07. Nein Is The Loneliest Number.wav]
------------------------------------------------------------
This track looks like CDDA with probability 100%
------------------------------------------------------------
Processing file: [08. Elaine DeFleetwood.wav]
------------------------------------------------------------
This track looks like CDDA with probability 100%
------------------------------------------------------------
Final Conclusion:
------------------------------------------------------------
These tracks looks like CDDA with probability 100%
Доп. информация:
 
AMG Review
The New York group that embodies the notion of avant-garde music is debatably the true heir to the concept of the free jazz of Albert Ayler and Sonny Sharrock and the minimalism of La Monte Young and Tony Conrad alike. While never falling into either avant-garde or jazz camps in their hometown, the trio's abrasive sound has more in common with European improvised music and Japanese noise. The maelstrom they created throughout the '80s via the simple trio of two saxophones and guitar may appear alienating or harsh on first listen. Much like the chaotic free jazz of the '60s, their recordings take repeated listens to reveal extraordinary details and strident intent that is forceful, enigmatic, shocking, and inventive. The title "Zurich" may imply that this was just a date recorded live and documented in the raw. It may well be just that, but don't let that imply this free improvisation does not cover some of the most deeply considered and challenging music of the '80s.
 
Состав
Guitar, Alto Saxophone – Donald Miller
Tenor Saxophone, Alto Saxophone, Baritone Saxophone – Jim Sauter
Tenor Saxophone, Alto Saxophone, Guitar – Don Dietrich
Any questions -> support@pro-jazz.com. По всем вопросам пишите -> support@pro-jazz.com
16:29
209
Нет комментариев. Ваш будет первым!