Поиск

(Early R&B, Soul, Motown) [CD] VA - Soul Legends, The Classic Collection of Sweet Soul (Percy Sledge, James Brown, Martha Reeves, Brook Benton, The Three Degrees and many others) - 1997, APE (image+.cue), lossless

(Early R&B, Soul, Motown) [CD] VA - Soul Legends, The Classic Collection of Sweet Soul (Percy Sledge, James Brown, Martha Reeves, Brook Benton, The Three Degrees and many others) - 1997, APE (image+.cue), lossless
Треклист:
Soul Legends, The Classic Collection of Sweet Soul
Жанр: Early R&B, Soul, Motown
Носитель: CD
Страна-производитель диска (релиза): EU
Год издания: 1997
Издатель (лейбл): Master Music
Номер по каталогу: 0082
Страна исполнителя (группы): USA
Аудиокодек: APE (*.ape)
Тип рипа: image+.cue
Битрейт аудио: lossless
Продолжительность: 48'44
Источник (релизер): Own rip
Наличие сканов в содержимом раздачи: да
Треклист / Исполнители:
1. Get Ready [Martha Reeves]
2. Frankie & Johnny [Brook Benton]
3. Dirty Ol'Man [The Three Degrees]
4. Who's Making Love [The Commodores]
5. I Heard it Through the Grapevine [Marvin Gaye]
6. Only in a Love Song [Gloria Gaynor]
7. My Heart and I [Amii Stewart]
8. Ain't no Sunshine [Al Jarreau]
9. Every Beat of my Heart [Gladys Knight & The Pips]
10. Joanna [Kool & The Gang]
11. You Heart and Soul [Barry White]
12. I Got You (I Feel Good) [James Brown]
13. Soul Sister Brown Sugar [Sam & Dave]
14. My Special Prayer [Percy Sledge]
15. My Guy [Mary Wells]
 
Лог создания рипа
Exact Audio Copy V1.0 beta 6 from 9. April 2015
EAC extraction logfile from 8. June 2015, 15:15
Various Artists / Soul legends
Used drive : TS8XDVDSTRANSCEND Adapter: 1 ID: 2
Read mode : Secure
Utilize accurate stream : Yes
Defeat audio cache : Yes
Make use of C2 pointers : No
Read offset correction : 6
Overread into Lead-In and Lead-Out : No
Fill up missing offset samples with silence : Yes
Delete leading and trailing silent blocks : No
Null samples used in CRC calculations : Yes
Used interface : Native Win32 interface for Win NT & 2000
Used output format : Monkey's Audio Lossless Encoder
Selected bitrate : High Lossless Compression
Quality : High
Add ID3 tag : Yes
Command line compressor : C:\Program Files (x86)\Exact Audio Copy\MAC\MAC.exe
TOC of the extracted CD
Track | Start | Length | Start sector | End sector
---------------------------------------------------------
1 | 0:00.00 | 3:06.41 | 0 | 13990
2 | 3:06.41 | 2:24.50 | 13991 | 24840
3 | 5:31.16 | 4:20.22 | 24841 | 44362
4 | 9:51.38 | 2:57.44 | 44363 | 57681
5 | 12:49.07 | 3:52.56 | 57682 | 75137
6 | 16:41.63 | 4:34.54 | 75138 | 95741
7 | 21:16.42 | 4:53.47 | 95742 | 117763
8 | 26:10.14 | 2:06.43 | 117764 | 127256
9 | 28:16.57 | 2:02.15 | 127257 | 136421
10 | 30:18.72 | 3:38.29 | 136422 | 152800
11 | 33:57.26 | 3:32.64 | 152801 | 168764
12 | 37:30.15 | 2:32.14 | 168765 | 180178
13 | 40:02.29 | 2:23.28 | 180179 | 190931
14 | 42:25.57 | 2:50.11 | 190932 | 203692
15 | 45:15.68 | 3:28.18 | 203693 | 219310
Range status and errors
Selected range
Filename D:\EAC\Soul legends VA.wav
Peak level 99.9 %
Extraction speed 2.8 X
Range quality 100.0 %
Test CRC 39FEB122
Copy CRC 39FEB122
Copy OK
No errors occurred
AccurateRip summary
Track 1 accurately ripped (confidence 6) [24FEA19E] (AR v2)
Track 2 accurately ripped (confidence 6) [727AC0FE] (AR v2)
Track 3 accurately ripped (confidence 6) [BF6E36ED] (AR v2)
Track 4 accurately ripped (confidence 6) [1E64AD41] (AR v2)
Track 5 accurately ripped (confidence 6) [0A4D07BF] (AR v2)
Track 6 accurately ripped (confidence 6) [E8A45593] (AR v2)
Track 7 accurately ripped (confidence 6) [837F6FA3] (AR v2)
Track 8 accurately ripped (confidence 6) [04E981CC] (AR v2)
Track 9 accurately ripped (confidence 6) [91B56F94] (AR v2)
Track 10 accurately ripped (confidence 6) [88FC4D32] (AR v2)
Track 11 accurately ripped (confidence 6) [E338D718] (AR v2)
Track 12 accurately ripped (confidence 6) [7354E0C6] (AR v2)
Track 13 accurately ripped (confidence 6) [F498EA4B] (AR v2)
Track 14 accurately ripped (confidence 6) [F437FCFE] (AR v2)
Track 15 accurately ripped (confidence 6) [81A61111] (AR v2)
All tracks accurately ripped
End of status report
---- CUETools DB Plugin V2.1.6
[CTDB TOCID: tWDLTibZ1EK.JUeM_8ewtyRElG0-] found
Submit result: unrecognized or virtual drive
Track | CTDB Status
1 | (4/4) Accurately ripped
2 | (4/4) Accurately ripped
3 | (4/4) Accurately ripped
4 | (4/4) Accurately ripped
5 | (4/4) Accurately ripped
6 | (4/4) Accurately ripped
7 | (4/4) Accurately ripped
8 | (4/4) Accurately ripped
9 | (4/4) Accurately ripped
10 | (4/4) Accurately ripped
11 | (4/4) Accurately ripped
12 | (4/4) Accurately ripped
13 | (4/4) Accurately ripped
14 | (4/4) Accurately ripped
15 | (4/4) Accurately ripped
==== Log checksum 0A1A061B98C413CAD9E06A24753C41FD6AD9559F64D1ACD8AFCE757632BA5DE1 ====
 
Содержание индексной карты (.CUE)
REM GENRE Soul
REM DATE 1997
REM DISCID CA0B6C0F
REM COMMENT "ExactAudioCopy v1.0b6"
CATALOG 0000000000000
PERFORMER "Various Artists"
TITLE "Soul legends"
FILE "Soul legends VA.ape" WAVE
TRACK 01 AUDIO
TITLE "Get ready"
PERFORMER "Martha Reeves"
INDEX 01 00:00:00
TRACK 02 AUDIO
TITLE "Frankie and Johnny"
PERFORMER "Brook Benton"
INDEX 01 03:06:41
TRACK 03 AUDIO
TITLE "Dirty ol' man"
PERFORMER "The Three Degrees"
INDEX 01 05:31:16
TRACK 04 AUDIO
TITLE "Who's making love?"
PERFORMER "The Commodores"
INDEX 01 09:51:38
TRACK 05 AUDIO
TITLE "I heard it through the grapevine"
PERFORMER "Marvin Gaye"
INDEX 01 12:49:07
TRACK 06 AUDIO
TITLE "Only in a love song"
PERFORMER "Gloria Gaynor"
INDEX 01 16:41:63
TRACK 07 AUDIO
TITLE "My heart and I"
PERFORMER "Amii Stewart"
INDEX 01 21:16:42
TRACK 08 AUDIO
TITLE "Ain’t no sunshine"
PERFORMER "Al Jarreau"
INDEX 01 26:10:14
TRACK 09 AUDIO
TITLE "Every beat of my heart"
PERFORMER "Gladys Knight & the Pips"
INDEX 01 28:16:57
TRACK 10 AUDIO
TITLE "Joanna"
PERFORMER "Kool & The Gang"
INDEX 01 30:18:72
TRACK 11 AUDIO
TITLE "You, heart and soul"
PERFORMER "Barry White"
INDEX 01 33:57:26
TRACK 12 AUDIO
TITLE "I got you"
PERFORMER "James Brown"
INDEX 01 37:30:15
TRACK 13 AUDIO
TITLE "Soul sister brown sugar"
PERFORMER "Sam & Dave"
INDEX 01 40:02:29
TRACK 14 AUDIO
TITLE "My special prayer"
PERFORMER "Percy Sledge"
INDEX 01 42:25:57
TRACK 15 AUDIO
TITLE "My guy"
PERFORMER "Mary Wells"
INDEX 01 45:15:68
Приватный:
Нет (DHT включён)
Размер:
245.19 Мб (257,097,251 байт) » файлов: 5
Участники:
0 раздают, 0 качают (0 участников всего)
Внешние участники:
2 раздают, 1 качают (3 участников всего) [ Обновить ]
Есть вопросы - пишите личное сообщение пользователю M0p94ok.
06:25
55
Нет комментариев. Ваш будет первым!