Поиск

(R&B, Funk, Motown, Soul, Jazz) [CD] VA - Various ‎– 50 MODern Dance Tracks. In The Beginning...The Mod Story (2CD) - 2012, APE (image+.cue), lossless

(R&B, Funk, Motown, Soul, Jazz) [CD] VA - Various ‎– 50 MODern Dance Tracks. In The Beginning...The Mod Story (2CD) - 2012, APE (image+.cue), lossless
Треклист:
V.A. ‎– 50 MODern Dance Tracks. In The Beginning...The Mod Story (2CD)
Жанр: R&B, Funk, Motown, Soul, Jazz
Носитель: CD
Страна-производитель диска (релиза): UK
Год издания: 2012
Издатель (лейбл): Not Now Music
Номер по каталогу: NOT2CD436
Аудиокодек: APE (*.ape)
Тип рипа: image+.cue
Битрейт аудио: lossless
Продолжительность: 01:02:58 + 01:00:34
Источник (релизер): РишРишИКА
Наличие сканов в содержимом раздачи: да
Треклист:
CD I:
01. The Mar Keys / Last Night [0:02:37.27]
02. The Marvelettes / Please Mr. Postman [0:02:29.55]
03. Rosco Gordon / Just A Little Bit [0:02:06.38]
04. Bobby Parker / Watch Your Step [0:02:44.71]
05. Carl Lester & The Showstoppers / When You See Me Hurt [0:02:20.02]
06. Dave "Bobby" Cortez / Hurricane [0:02:23.52]
07. Nat Kendrick & The Swans / (Do The) Mashed Potatoes, Pt. 1 [0:01:48.29]
08. Bobby Bland / Turn On Your Love Light [0:02:38.33]
09. James Ray / If You Gotta Make A Fool Of Somebody [0:02:02.02]
10. Chris Kenner / I Like It Like That (Part 1) [0:01:56.42]
11. The Contours / Whole Lotta Woman [0:02:54.72]
12. Bill Black / My Girl Josephine [0:02:14.66]
13. Bruce Channel / Hey! Baby [0:02:24.03]
14. The Miracles / Shop Around [0:02:50.34]
15. The Isley Brothers / Shout [0:02:18.14]
16. Paul Gayten / The Hunch [0:02:48.15]
17. Bo Diddley / I'm A Man [0:03:02.08]
18. Mary Wells / Bye Bye Baby [0:02:56.07]
19. Muddy Waters / Got My Mojo Working [0:02:52.60]
20. James Booker / Gonzo [0:02:30.58]
21. Arthur Alexander / You Better Move On [0:02:44.51]
22. The Shirelles / Baby It's You [0:02:41.48]
23. The Chantels / Well, I Told You [0:02:26.72]
24. Ray Charles / Unchain My Heart [0:02:51.58]
25. Phil Upchurch / You Can't Sit Down (Part One) [0:02:12.58]
CD II:
01. Dick And Dee Dee / The Mountains high [0:02:12.44]
02. The Marathons / Peanut Butter [0:02:03.58]
03. Don Covay / Pony Time [0:02:18.57]
04. Dee Clark / Hey Little Girl [0:01:53.06]
05. Diana Ross & the Supremes / Buttered Popcorn [0:02:56.52]
06. Bobby Bland / I Pity the Fool [0:02:42.47]
07. Joey Dee & the Starliters / Peppermint Twist [0:02:02.01]
08. Billy Preston / Volcano [0:02:11.68]
09. The Coasters / Searchin' [0:02:41.69]
10. The Drifters / Sweets For My Sweet [0:02:36.55]
11. Freddie King / Hide Away [0:02:37.00]
12. Ernie K. Doe / A Certain Girl [0:02:45.58]
13. Maximillian / The Snake [0:01:59.50]
14. Marty Lewis / Satisfied With My lovin' [0:01:47.16]
15. Huey "Piano" Smith & His Clowns / Don't You Just Know It [0:02:34.27]
16. Ike & Tina Turner / A Fool In Love [0:02:53.06]
17. Little Walter / My Babe [0:02:42.03]
18. The Duels / Stick Shift [0:02:30.04]
19. The Miracles / Ain't It Baby [0:02:34.55]
20. Maurice Williams & The Zodiacs / Stay [0:01:35.46]
21. Etta James / I Just Want To Make Love To You [0:03:06.46]
22. Ray Charles / What'd I Say Pt.1 [0:03:10.69]
23. The Shirelles / Mama Said [0:02:08.24]
24. The Top Notes / Twist & Shout [0:02:04.41]
25. Phil Upchurch / You Can't Sit Down, (Part 2) [0:02:23.62]
 
Лог создания рипа (CD I)
Exact Audio Copy V1.0 beta 3 from 29. August 2011
Отчёт EAC об извлечении, выполненном 22. июня 2015, 12:27
Various / In The Beginning... The Mod Story - Disc 1
Дисковод: HL-DT-STDVDRAM GH22NS40 Adapter: 5 ID: 0
Режим чтения : Достоверность
Использование точного потока : Да
Отключение кэша аудио : Да
Использование указателей C2 : Нет
Коррекция смещения при чтении : 667
Способность читать области Lead-in и Lead-out : Нет
Заполнение пропущенных сэмплов тишиной : Да
Удаление блоков с тишиной в начале и конце : Нет
При вычислениях CRC использовались нулевые сэмплы : Да
Интерфейс : Установленный внешний ASPI-интерфейс
Выходной формат : Пользовательский кодировщик
Выбранный битрейт : 128 kBit/s
Качество : Высокий
Добавление ID3-тега : Нет
Утилита сжатия : C:\Program Files\Monkey's Audio\MAC.exe
Дополнительные параметры : %source% %dest% -c3000
TOC извлечённого CD
Трек | Старт | Длительность | Начальный сектор | Конечный сектор
---------------------------------------------------------------------
1 | 0:00.00 | 2:37.27 | 0 | 11801
2 | 2:37.27 | 2:29.55 | 11802 | 23031
3 | 5:07.07 | 2:06.38 | 23032 | 32519
4 | 7:13.45 | 2:44.71 | 32520 | 44890
5 | 9:58.41 | 2:20.02 | 44891 | 55392
6 | 12:18.43 | 2:23.52 | 55393 | 66169
7 | 14:42.20 | 1:48.29 | 66170 | 74298
8 | 16:30.49 | 2:38.33 | 74299 | 86181
9 | 19:09.07 | 2:02.02 | 86182 | 95333
10 | 21:11.09 | 1:56.42 | 95334 | 104075
11 | 23:07.51 | 2:54.72 | 104076 | 117197
12 | 26:02.48 | 2:14.66 | 117198 | 127313
13 | 28:17.39 | 2:24.03 | 127314 | 138116
14 | 30:41.42 | 2:50.34 | 138117 | 150900
15 | 33:32.01 | 2:18.14 | 150901 | 161264
16 | 35:50.15 | 2:48.15 | 161265 | 173879
17 | 38:38.30 | 3:02.08 | 173880 | 187537
18 | 41:40.38 | 2:56.07 | 187538 | 200744
19 | 44:36.45 | 2:52.60 | 200745 | 213704
20 | 47:29.30 | 2:30.58 | 213705 | 225012
21 | 50:00.13 | 2:44.51 | 225013 | 237363
22 | 52:44.64 | 2:41.48 | 237364 | 249486
23 | 55:26.37 | 2:26.72 | 249487 | 260508
24 | 57:53.34 | 2:51.58 | 260509 | 273391
25 | 60:45.17 | 2:12.58 | 273392 | 283349
Характеристики диапазона извлечения и сообщения об ошибках
Выбранный диапазон
Имя файла D:\Новая сборка\ФотоПР\V.A. - 50 MODern Dance Tracks. In The Beginning... The Mod Story (2012)\CD I\V.A. - In The Beginning... The Mod Story (CD I).wav
Пиковый уровень 98.8 %
Скорость извлечения 1.9 X
Качество диапазона 100.0 %
CRC теста 4C492049
CRC копии 4C492049
Копирование... OK
Ошибок не произошло
AccurateRip: сводка
Трек 1 точность не определена (достоверность 2) [53DA7084], AccurateRip вернул [B50C1701] (AR v2)
Трек 2 точность не определена (достоверность 2) [365C82A2], AccurateRip вернул [F98D9DFC] (AR v2)
Трек 3 точность не определена (достоверность 2) [0802BE09], AccurateRip вернул [4D8B9DFF] (AR v2)
Трек 4 точность не определена (достоверность 2) [3FD0CCA9], AccurateRip вернул [D98DD9DF] (AR v2)
Трек 5 точность не определена (достоверность 2) [91CF76D7], AccurateRip вернул [7D650828] (AR v2)
Трек 6 точность не определена (достоверность 2) [832F2C79], AccurateRip вернул [813F321A] (AR v2)
Трек 7 точность не определена (достоверность 2) [F21599CD], AccurateRip вернул [3D6D7654] (AR v2)
Трек 8 точность не определена (достоверность 2) [2C5DDC44], AccurateRip вернул [A7DDB6C9] (AR v2)
Трек 9 точность не определена (достоверность 2) [8DDF9963], AccurateRip вернул [9CFF9189] (AR v2)
Трек 10 точность не определена (достоверность 2) [73CB95A8], AccurateRip вернул [821337FB] (AR v2)
Трек 11 точность не определена (достоверность 2) [C227159B], AccurateRip вернул [D4E7C4F2] (AR v2)
Трек 12 точность не определена (достоверность 2) [FB8EA399], AccurateRip вернул [4E82423F] (AR v2)
Трек 13 точность не определена (достоверность 2) [962CFA4A], AccurateRip вернул [D2F08C59] (AR v2)
Трек 14 точность не определена (достоверность 2) [437865AB], AccurateRip вернул [A1141E3E] (AR v2)
Трек 15 точность не определена (достоверность 2) [88F39217], AccurateRip вернул [11425440] (AR v2)
Трек 16 точность не определена (достоверность 2) [652847B9], AccurateRip вернул [8EBD5B4E] (AR v2)
Трек 17 точность не определена (достоверность 2) [F699EBE8], AccurateRip вернул [CA43425E] (AR v2)
Трек 18 точность не определена (достоверность 2) [AA68E853], AccurateRip вернул [2EB5A3DD] (AR v2)
Трек 19 точность не определена (достоверность 2) [DE0672FE], AccurateRip вернул [8B0CEE65] (AR v2)
Трек 20 точность не определена (достоверность 2) [FAAB3406], AccurateRip вернул [6D8676D0] (AR v2)
Трек 21 точность не определена (достоверность 2) [17EC5731], AccurateRip вернул [CB1AF872] (AR v2)
Трек 22 точность не определена (достоверность 2) [1954E3EE], AccurateRip вернул [2A63D2C0] (AR v2)
Трек 23 точность не определена (достоверность 2) [DA3532AD], AccurateRip вернул [666FF2EC] (AR v2)
Трек 24 точность не определена (достоверность 2) [D57D4261], AccurateRip вернул [CAA23D4D] (AR v2)
Трек 25 точность не определена (достоверность 2) [8DA9B3EF], AccurateRip вернул [E708EAF3] (AR v2)
Ни один трек не прошёл проверки на точность
В вашей базе может быть иной вариант штамповки диска
Конец отчёта
==== Контрольная сумма отчёта 110E469D5CC6357A56E78BB401CF58A12DEDC188D3300497E3E3951D63C32C93 ====
 
Лог создания рипа (CD II)
Exact Audio Copy V1.0 beta 3 from 29. August 2011
Отчёт EAC об извлечении, выполненном 19. июня 2015, 11:54
Various / In The Beginning... The Mod Story - Disc 2
Дисковод: HL-DT-STDVDRAM GH22NS40 Adapter: 5 ID: 0
Режим чтения : Достоверность
Использование точного потока : Да
Отключение кэша аудио : Да
Использование указателей C2 : Нет
Коррекция смещения при чтении : 667
Способность читать области Lead-in и Lead-out : Нет
Заполнение пропущенных сэмплов тишиной : Да
Удаление блоков с тишиной в начале и конце : Нет
При вычислениях CRC использовались нулевые сэмплы : Да
Интерфейс : Установленный внешний ASPI-интерфейс
Выходной формат : Пользовательский кодировщик
Выбранный битрейт : 128 kBit/s
Качество : Высокий
Добавление ID3-тега : Нет
Утилита сжатия : C:\Program Files\Monkey's Audio\MAC.exe
Дополнительные параметры : %source% %dest% -c3000
TOC извлечённого CD
Трек | Старт | Длительность | Начальный сектор | Конечный сектор
---------------------------------------------------------------------
1 | 0:00.00 | 2:12.44 | 0 | 9943
2 | 2:12.44 | 2:03.58 | 9944 | 19226
3 | 4:16.27 | 2:18.57 | 19227 | 29633
4 | 6:35.09 | 1:53.06 | 29634 | 38114
5 | 8:28.15 | 2:56.52 | 38115 | 51366
6 | 11:24.67 | 2:42.47 | 51367 | 63563
7 | 14:07.39 | 2:02.01 | 63564 | 72714
8 | 16:09.40 | 2:11.68 | 72715 | 82607
9 | 18:21.33 | 2:41.69 | 82608 | 94751
10 | 21:03.27 | 2:36.55 | 94752 | 106506
11 | 23:40.07 | 2:37.00 | 106507 | 118281
12 | 26:17.07 | 2:45.58 | 118282 | 130714
13 | 29:02.65 | 1:59.50 | 130715 | 139689
14 | 31:02.40 | 1:47.16 | 139690 | 147730
15 | 32:49.56 | 2:34.27 | 147731 | 159307
16 | 35:24.08 | 2:53.06 | 159308 | 172288
17 | 38:17.14 | 2:42.03 | 172289 | 184441
18 | 40:59.17 | 2:30.04 | 184442 | 195695
19 | 43:29.21 | 2:34.55 | 195696 | 207300
20 | 46:04.01 | 1:35.46 | 207301 | 214471
21 | 47:39.47 | 3:06.46 | 214472 | 228467
22 | 50:46.18 | 3:10.69 | 228468 | 242786
23 | 53:57.12 | 2:08.24 | 242787 | 252410
24 | 56:05.36 | 2:04.41 | 252411 | 261751
25 | 58:10.02 | 2:23.62 | 261752 | 272538
Характеристики диапазона извлечения и сообщения об ошибках
Выбранный диапазон
Имя файла D:\Новая сборка\ФотоПР\V.A. - 50 MODern DAnce Tracks (2012)\CD II\Various - In The Beginning... The Mod Story - Disc 2.wav
Пиковый уровень 98.6 %
Скорость извлечения 2.1 X
Качество диапазона 100.0 %
CRC теста 7AED825E
CRC копии 7AED825E
Копирование... OK
Ошибок не произошло
AccurateRip: сводка
Трек 1 точность не определена (достоверность 2) [A1D0C527], AccurateRip вернул [849E8C8A] (AR v2)
Трек 2 точность не определена (достоверность 2) [2EF63560], AccurateRip вернул [DF967D16] (AR v2)
Трек 3 точность не определена (достоверность 2) [8684E245], AccurateRip вернул [01673D8B] (AR v2)
Трек 4 точность не определена (достоверность 2) [BFE82326], AccurateRip вернул [05FD593E] (AR v2)
Трек 5 точность не определена (достоверность 2) [66B2EA9A], AccurateRip вернул [4C8F9B07] (AR v2)
Трек 6 точность не определена (достоверность 2) [39B264D8], AccurateRip вернул [8F3FF3EA] (AR v2)
Трек 7 точность не определена (достоверность 2) [5B32648C], AccurateRip вернул [68E7481E] (AR v2)
Трек 8 точность не определена (достоверность 2) [3D391DF7], AccurateRip вернул [447C713C] (AR v2)
Трек 9 точность не определена (достоверность 2) [95953B37], AccurateRip вернул [FDEBA4ED] (AR v2)
Трек 10 точность не определена (достоверность 2) [BB23BE0D], AccurateRip вернул [E8D0E540] (AR v2)
Трек 11 точность не определена (достоверность 2) [9B900473], AccurateRip вернул [FC597614] (AR v2)
Трек 12 точность не определена (достоверность 2) [9A3FD274], AccurateRip вернул [F744E1CF] (AR v2)
Трек 13 точность не определена (достоверность 2) [13682832], AccurateRip вернул [8F684CAB] (AR v2)
Трек 14 точность не определена (достоверность 2) [A1668719], AccurateRip вернул [7ECA5AB5] (AR v2)
Трек 15 точность не определена (достоверность 2) [64CCD23A], AccurateRip вернул [01CFCFC3] (AR v2)
Трек 16 точность не определена (достоверность 2) [EF74B7A4], AccurateRip вернул [B75B1F87] (AR v2)
Трек 17 точность не определена (достоверность 2) [9BF00068], AccurateRip вернул [3907D490] (AR v2)
Трек 18 точность не определена (достоверность 2) [1D1D4500], AccurateRip вернул [4B00F3FB] (AR v2)
Трек 19 точность не определена (достоверность 2) [DBD61D96], AccurateRip вернул [49FF53B8] (AR v2)
Трек 20 точность не определена (достоверность 2) [55551191], AccurateRip вернул [5BA5C2DF] (AR v2)
Трек 21 точность не определена (достоверность 2) [37261DC2], AccurateRip вернул [D2D7EBFF] (AR v2)
Трек 22 точность не определена (достоверность 2) [01F5D81F], AccurateRip вернул [F5375273] (AR v2)
Трек 23 точность не определена (достоверность 2) [FB6859CA], AccurateRip вернул [6E78E9DA] (AR v2)
Трек 24 точность не определена (достоверность 2) [2A143EAB], AccurateRip вернул [FE094936] (AR v2)
Трек 25 точность не определена (достоверность 2) [E351F555], AccurateRip вернул [03D92FBA] (AR v2)
Ни один трек не прошёл проверки на точность
В вашей базе может быть иной вариант штамповки диска
Конец отчёта
==== Контрольная сумма отчёта 48E854EA788A02DE70C38FE3D22575C6787B89D2D62DBDDA50B1E7EE27A78DAD ====
 
Скриншот спектра частот
По поводу спектров частот: приведены выборочные спектры (в папке со сканами их больше) лишь два трека из определенных TAU Analyzer как MPEG, 10-ый на CDI и 8-ой на CDII (всего их 9 из 50 и один не определен(последняя картинка) ), срезаны криво и резко. В остальных треках, выделенных как MPEG, слышны характерные для аналоговых записей шумы и спектр "плывет" плавно. Причем 6-ой трек на CDI (5-ая картинка слева) определенный программой как CDDA тоже выглядит не ахти.
В общем на ваше усмотрение. На мой взгляд, это просчет студии звукозаписи чистившей старые записи от тресков и шумов. Может у профессионалов найдется другое объяснение...
В любом случае подборка замечательная, на мой вкус
 
Об альбоме (сборнике)
One of the highlights of this collection is Ray Charles 'What'd I Say' from 1959. Like many Mod favourites it is cast in 12-bar blues from but jazz, soul and blues are all cast into the melting pot and the result is a timeless classic.
Доп. информация: The word Mod is nowdays too often associated with infamous 'Mods and Rockers' pitched battles on the beaches of Brighton and Clacton during 1964. The origin of the name, however, go back to Fifties when it was used to describe a 'modern' youth culture distinct from the 'trad' (traditional) one. Opinions differ as to its exact origins but it is undeniable that some of the ingredients in the melting pot included the existentialism of Jean-Paul Sartre, a love of Italian fashion style, the Jewish middle-class culture in London's East End, the beatnik cofee-bar culture and, of course, scooters!
Приватный:
Нет (DHT включён)
Размер:
615.16 Мб (645,046,378 байт) » файлов: 27
Участники:
0 раздают, 0 качают (0 участников всего)
Внешние участники:
5 раздают, 2 качают (7 участников всего) [ Обновить ]
No seeders - write personal message to user M0p94ok. Нет сидеров - пишите личное сообщение пользователю M0p94ok.
06:38
62
Нет комментариев. Ваш будет первым!