Поиск

(Funk, Soul) [CD] VA - Body & Soul "Love Undercover" (2 CD) - 2005, FLAC (tracks+.cue), lossless

(Funk, Soul) [CD] VA - Body & Soul "Love Undercover" (2 CD) - 2005, FLAC (tracks+.cue), lossless
Треклист:
Various Artists - Body & Soul "Love Undercover" (2 CD)

Жанр: Funk, Soul | Носитель: CD
Год издания: 2005 | Издатель (лейбл): Time Life Music | Номер по каталогу: TL BAS/15
Аудиокодек: FLAC (*.flac) | Тип рипа: tracks+.cue | Битрейт аудио: lossless
Продолжительность: 58:18 / 52:11 | Rip by JET 1
Наличие сканов в содержимом раздачи: да 
 
 
CD 1
Треклист:
01. The Tracks Of My Tears (Smokey Robinson & The Miracles) (2:58)
02. Backstabbers (The O'jays) (3:06)
03. Your Secret Love (Luther Vandross) (4:14)
04. Don't Let It Go To Your Head (Jean Carn) (4:52)
05. Like Sister And Brother (The Drifters) (3:27)
06. Mind Blowing Decisions (Heatwave) (4:18)
07. Never, Never Gonna Give Ya Up (Barry White) (4:00)
08. Don't Look Any Further (Dennis Edwards) (4:01)
09. Who Is He (What Is He To You) (Bill Withers) (3:15)
10. Secret Combination (Randy Crawford) (3:21)
11. Teardrops (The Intruders) (5:12)
12. Please Please Please (James Brown) (2:46)
13. Funny How Time Slips Away (Dorothy Moore) (3:49)
14. For The Love Of You (The Isley Brothers) (4:48)
15. Willing To Forgive (Aretha Franklin) (4:13)
 
 
Лог создания рипа
Exact Audio Copy V1.0 beta 3 from 29. August 2011
EAC extraction logfile from 19. May 2015, 14:13
Various / Body & Soul "Love Undercover"
Used drive : ATAPI DVD A DH16A6L-C Adapter: 2 ID: 0
Read mode : Secure
Utilize accurate stream : Yes
Defeat audio cache : Yes
Make use of C2 pointers : No
Read offset correction : 6
Overread into Lead-In and Lead-Out : No
Fill up missing offset samples with silence : Yes
Delete leading and trailing silent blocks : No
Null samples used in CRC calculations : Yes
Used interface : Native Win32 interface for Win NT & 2000
Gap handling : Appended to previous track
Used output format : User Defined Encoder
Selected bitrate : 1024 kBit/s
Quality : High
Add ID3 tag : No
Command line compressor : C:\Program Files\FLAC\flac.exe
Additional command line options : -8 -V -T "ARTIST=%artist%" -T "TITLE=%title%" -T "ALBUM=%albumtitle%" -T "DATE=%year%" -T "TRACKNUMBER=%tracknr%" -T "GENRE=%genre%" -T "PERFORMER=%albuminterpret%" -T "COMPOSER=%composer%" %haslyrics%--tag-from-file=LYRICS="%lyricsfile%"%haslyrics% -T "ALBUMARTIST=%albumartist%" -T "DISCNUMBER=%cdnumber%" -T "TOTALDISCS=%totalcds%" -T "TOTALTRACKS=%numtracks%" -T "COMMENT=%comment%" %source% -o %dest%
TOC of the extracted CD
Track | Start | Length | Start sector | End sector
---------------------------------------------------------
1 | 0:00.00 | 2:57.57 | 0 | 13331
2 | 2:57.57 | 3:05.48 | 13332 | 27254
3 | 6:03.30 | 4:13.53 | 27255 | 46282
4 | 10:17.08 | 4:52.00 | 46283 | 68182
5 | 15:09.08 | 3:26.48 | 68183 | 83680
6 | 18:35.56 | 4:17.67 | 83681 | 103022
7 | 22:53.48 | 3:59.44 | 103023 | 120991
8 | 26:53.17 | 4:01.01 | 120992 | 139067
9 | 30:54.18 | 3:15.19 | 139068 | 153711
10 | 34:09.37 | 3:21.05 | 153712 | 168791
11 | 37:30.42 | 5:11.74 | 168792 | 192190
12 | 42:42.41 | 2:46.15 | 192191 | 204655
13 | 45:28.56 | 3:49.22 | 204656 | 221852
14 | 49:18.03 | 4:47.46 | 221853 | 243423
15 | 54:05.49 | 4:12.56 | 243424 | 262379
Track 1
Filename F:\MUSIC\0\POSTS\Body & Soul Love ~ Under Cover [2CD] (2005)\cd1\01 - Smokey Robinson & The Miracles - The Tracks Of My Tears.wav
Pre-gap length 0:00:02.00
Peak level 100.0 %
Extraction speed 3.3 X
Track quality 100.0 %
Test CRC C643C96A
Copy CRC C643C96A
Accurately ripped (confidence 1) [6B19A9CE] (AR v2)
Copy OK
Track 2
Filename F:\MUSIC\0\POSTS\Body & Soul Love ~ Under Cover [2CD] (2005)\cd1\02 - The O'jays - Backstabbers.wav
Pre-gap length 0:00:02.58
Peak level 99.9 %
Extraction speed 3.6 X
Track quality 100.0 %
Test CRC 20ED1A58
Copy CRC 20ED1A58
Accurately ripped (confidence 1) [26E5FD58] (AR v2)
Copy OK
Track 3
Filename F:\MUSIC\0\POSTS\Body & Soul Love ~ Under Cover [2CD] (2005)\cd1\03 - Luther Vandross - Your Secret Love.wav
Pre-gap length 0:00:02.58
Peak level 84.1 %
Extraction speed 4.1 X
Track quality 100.0 %
Test CRC 958C0A03
Copy CRC 958C0A03
Accurately ripped (confidence 1) [0FF249C2] (AR v2)
Copy OK
Track 4
Filename F:\MUSIC\0\POSTS\Body & Soul Love ~ Under Cover [2CD] (2005)\cd1\04 - Jean Carn - Don't Let It Go To Your Head.wav
Pre-gap length 0:00:02.58
Peak level 100.0 %
Extraction speed 4.6 X
Track quality 100.0 %
Test CRC 1D583734
Copy CRC 1D583734
Accurately ripped (confidence 1) [56D97163] (AR v2)
Copy OK
Track 5
Filename F:\MUSIC\0\POSTS\Body & Soul Love ~ Under Cover [2CD] (2005)\cd1\05 - The Drifters - Like Sister And Brother.wav
Pre-gap length 0:00:02.58
Peak level 100.0 %
Extraction speed 4.6 X
Track quality 100.0 %
Test CRC 8B4D64F4
Copy CRC 8B4D64F4
Accurately ripped (confidence 1) [DE5E38F0] (AR v2)
Copy OK
Track 6
Filename F:\MUSIC\0\POSTS\Body & Soul Love ~ Under Cover [2CD] (2005)\cd1\06 - Heatwave - Mind Blowing Decisions.wav
Pre-gap length 0:00:02.58
Peak level 100.0 %
Extraction speed 5.0 X
Track quality 100.0 %
Test CRC 5EBB7A28
Copy CRC 5EBB7A28
Accurately ripped (confidence 1) [56A6E640] (AR v2)
Copy OK
Track 7
Filename F:\MUSIC\0\POSTS\Body & Soul Love ~ Under Cover [2CD] (2005)\cd1\07 - Barry White - Never, Never Gonna Give Ya Up.wav
Pre-gap length 0:00:02.58
Peak level 100.0 %
Extraction speed 5.2 X
Track quality 100.0 %
Test CRC EA4EE157
Copy CRC EA4EE157
Accurately ripped (confidence 1) [D2B2C098] (AR v2)
Copy OK
Track 8
Filename F:\MUSIC\0\POSTS\Body & Soul Love ~ Under Cover [2CD] (2005)\cd1\08 - Dennis Edwards - Don't Look Any Further.wav
Pre-gap length 0:00:02.58
Peak level 100.0 %
Extraction speed 4.4 X
Track quality 99.9 %
Test CRC 1286F6BC
Copy CRC 1286F6BC
Accurately ripped (confidence 1) [01D52DA2] (AR v2)
Copy OK
Track 9
Filename F:\MUSIC\0\POSTS\Body & Soul Love ~ Under Cover [2CD] (2005)\cd1\09 - Bill Withers - Who Is He (What Is He To You).wav
Pre-gap length 0:00:02.58
Peak level 100.0 %
Extraction speed 5.5 X
Track quality 100.0 %
Test CRC 9A9B3488
Copy CRC 9A9B3488
Accurately ripped (confidence 1) [511EC8B9] (AR v2)
Copy OK
Track 10
Filename F:\MUSIC\0\POSTS\Body & Soul Love ~ Under Cover [2CD] (2005)\cd1\10 - Randy Crawford - Secret Combination.wav
Pre-gap length 0:00:02.58
Peak level 100.0 %
Extraction speed 5.7 X
Track quality 100.0 %
Test CRC 2D6839A3
Copy CRC 2D6839A3
Accurately ripped (confidence 1) [498472E0] (AR v2)
Copy OK
Track 11
Filename F:\MUSIC\0\POSTS\Body & Soul Love ~ Under Cover [2CD] (2005)\cd1\11 - The Intruders - Teardrops.wav
Pre-gap length 0:00:02.58
Peak level 100.0 %
Extraction speed 6.3 X
Track quality 100.0 %
Test CRC EA1EF775
Copy CRC EA1EF775
Accurately ripped (confidence 1) [036EBC04] (AR v2)
Copy OK
Track 12
Filename F:\MUSIC\0\POSTS\Body & Soul Love ~ Under Cover [2CD] (2005)\cd1\12 - James Brown - Please Please Please.wav
Pre-gap length 0:00:02.58
Peak level 100.0 %
Extraction speed 6.0 X
Track quality 100.0 %
Test CRC F66833C9
Copy CRC F66833C9
Accurately ripped (confidence 1) [27DB65B3] (AR v2)
Copy OK
Track 13
Filename F:\MUSIC\0\POSTS\Body & Soul Love ~ Under Cover [2CD] (2005)\cd1\13 - Dorothy Moore - Funny How Time Slips Away.wav
Pre-gap length 0:00:02.58
Peak level 100.0 %
Extraction speed 6.4 X
Track quality 100.0 %
Test CRC EB5A9F48
Copy CRC EB5A9F48
Accurately ripped (confidence 1) [0116B054] (AR v2)
Copy OK
Track 14
Filename F:\MUSIC\0\POSTS\Body & Soul Love ~ Under Cover [2CD] (2005)\cd1\14 - The Isley Brothers - For The Love Of You.wav
Pre-gap length 0:00:02.58
Peak level 100.0 %
Extraction speed 6.8 X
Track quality 100.0 %
Test CRC EF1B348D
Copy CRC EF1B348D
Accurately ripped (confidence 1) [BFA23DF2] (AR v2)
Copy OK
Track 15
Filename F:\MUSIC\0\POSTS\Body & Soul Love ~ Under Cover [2CD] (2005)\cd1\15 - Aretha Franklin - Willing To Forgive.wav
Pre-gap length 0:00:02.58
Peak level 100.0 %
Extraction speed 5.5 X
Track quality 99.9 %
Test CRC 50CEE232
Copy CRC 50CEE232
Accurately ripped (confidence 1) [F5B445E6] (AR v2)
Copy OK
All tracks accurately ripped
No errors occurred
End of status report
==== Log checksum 88A56F436657544A4877E97488377B30BE8EF88E3C7F64FFABC6617BDBEEAEA5 ====
 
Содержание индексной карты (.CUE)
REM GENRE Soul
REM DATE 2005
REM DISCID C80DAA0F
REM COMMENT "ExactAudioCopy v1.0b3"
PERFORMER "Various"
TITLE "Body & Soul ''Love Undercover'' (disc 1)"
FILE "01 - Smokey Robinson & The Miracles - The Tracks Of My Tears.wav" WAVE
TRACK 01 AUDIO
TITLE "The Tracks Of My Tears"
PERFORMER "Smokey Robinson & The Miracles"
INDEX 01 00:00:00
TRACK 02 AUDIO
TITLE "Backstabbers"
PERFORMER "The O'jays"
INDEX 00 02:54:74
FILE "02 - The O'jays - Backstabbers.wav" WAVE
INDEX 01 00:00:00
TRACK 03 AUDIO
TITLE "Your Secret Love"
PERFORMER "Luther Vandross"
INDEX 00 03:02:65
FILE "03 - Luther Vandross - Your Secret Love.wav" WAVE
INDEX 01 00:00:00
TRACK 04 AUDIO
TITLE "Don't Let It Go To Your Head"
PERFORMER "Jean Carn"
INDEX 00 04:10:70
FILE "04 - Jean Carn - Don't Let It Go To Your Head.wav" WAVE
INDEX 01 00:00:00
TRACK 05 AUDIO
TITLE "Like Sister And Brother"
PERFORMER "The Drifters"
INDEX 00 04:49:17
FILE "05 - The Drifters - Like Sister And Brother.wav" WAVE
INDEX 01 00:00:00
TRACK 06 AUDIO
TITLE "Mind Blowing Decisions"
PERFORMER "Heatwave"
INDEX 00 03:23:65
FILE "06 - Heatwave - Mind Blowing Decisions.wav" WAVE
INDEX 01 00:00:00
TRACK 07 AUDIO
TITLE "Never, Never Gonna Give Ya Up"
PERFORMER "Barry White"
INDEX 00 04:15:09
FILE "07 - Barry White - Never, Never Gonna Give Ya Up.wav" WAVE
INDEX 01 00:00:00
TRACK 08 AUDIO
TITLE "Don't Look Any Further"
PERFORMER "Dennis Edwards"
INDEX 00 03:56:61
FILE "08 - Dennis Edwards - Don't Look Any Further.wav" WAVE
INDEX 01 00:00:00
TRACK 09 AUDIO
TITLE "Who Is He (What Is He To You)"
PERFORMER "Bill Withers"
INDEX 00 03:58:18
FILE "09 - Bill Withers - Who Is He (What Is He To You).wav" WAVE
INDEX 01 00:00:00
TRACK 10 AUDIO
TITLE "Secret Combination"
PERFORMER "Randy Crawford"
INDEX 00 03:12:36
FILE "10 - Randy Crawford - Secret Combination.wav" WAVE
INDEX 01 00:00:00
TRACK 11 AUDIO
TITLE "Teardrops"
PERFORMER "The Intruders"
INDEX 00 03:18:22
FILE "11 - The Intruders - Teardrops.wav" WAVE
INDEX 01 00:00:00
TRACK 12 AUDIO
TITLE "Please Please Please"
PERFORMER "James Brown"
INDEX 00 05:09:16
FILE "12 - James Brown - Please Please Please.wav" WAVE
INDEX 01 00:00:00
TRACK 13 AUDIO
TITLE "Funny How Time Slips Away"
PERFORMER "Dorothy Moore"
INDEX 00 02:43:32
FILE "13 - Dorothy Moore - Funny How Time Slips Away.wav" WAVE
INDEX 01 00:00:00
TRACK 14 AUDIO
TITLE "For The Love Of You"
PERFORMER "The Isley Brothers"
INDEX 00 03:46:39
FILE "14 - The Isley Brothers - For The Love Of You.wav" WAVE
INDEX 01 00:00:00
TRACK 15 AUDIO
TITLE "Willing To Forgive"
PERFORMER "Aretha Franklin"
INDEX 00 04:44:63
FILE "15 - Aretha Franklin - Willing To Forgive.wav" WAVE
INDEX 01 00:00:00
 
CD 2
Треклист:
01. It's A Shame (The Detroit Spinners) (3:11)
02. Private Life (Grace Jones) (4:04)
03. Telephone Man (New Edition) (4:01)
04. You'll Never Find Another Love Like Mine (Lou Rawls) (3:33)
05. I'm Your Puppet (James & Bobby Purify) (3:15)
06. You Can't Hide Love (Earth, Wind & Fire) (4:11)
07. Joy And Pain (Maze featuring Frankie Beverly) (3:32)
08. Part Time Love (Gladys Knight & The Pips) (2:33)
09. I Wish It Would Rain (The Temptations) (2:53)
10. Woman To Woman (Shirley Brown) (3:57)
11. Touch A Four Leaf Clover (Atlantic Starr) (4:41)
12. I'd Rather Go Blind (Etta James) (2:35)
13. Check It Out (Tavares) (3:25)
14. I'm Going Down (Rose Royce) (3:38)
15. Private Number (William Bell & Judy Clay) (2:42)
 
 
Лог создания рипа
Exact Audio Copy V1.0 beta 3 from 29. August 2011
EAC extraction logfile from 19. May 2015, 15:04
Various / Body & Soul "Love Undercover"
Used drive : ATAPI DVD A DH16A6L-C Adapter: 2 ID: 0
Read mode : Secure
Utilize accurate stream : Yes
Defeat audio cache : Yes
Make use of C2 pointers : No
Read offset correction : 6
Overread into Lead-In and Lead-Out : No
Fill up missing offset samples with silence : Yes
Delete leading and trailing silent blocks : No
Null samples used in CRC calculations : Yes
Used interface : Native Win32 interface for Win NT & 2000
Gap handling : Appended to previous track
Used output format : User Defined Encoder
Selected bitrate : 1024 kBit/s
Quality : High
Add ID3 tag : No
Command line compressor : C:\Program Files\FLAC\flac.exe
Additional command line options : -8 -V -T "ARTIST=%artist%" -T "TITLE=%title%" -T "ALBUM=%albumtitle%" -T "DATE=%year%" -T "TRACKNUMBER=%tracknr%" -T "GENRE=%genre%" -T "PERFORMER=%albuminterpret%" -T "COMPOSER=%composer%" %haslyrics%--tag-from-file=LYRICS="%lyricsfile%"%haslyrics% -T "ALBUMARTIST=%albumartist%" -T "DISCNUMBER=%cdnumber%" -T "TOTALDISCS=%totalcds%" -T "TOTALTRACKS=%numtracks%" -T "COMMENT=%comment%" %source% -o %dest%
TOC of the extracted CD
Track | Start | Length | Start sector | End sector
---------------------------------------------------------
1 | 0:00.00 | 3:10.40 | 0 | 14289
2 | 3:10.40 | 4:04.33 | 14290 | 32622
3 | 7:14.73 | 4:01.09 | 32623 | 50706
4 | 11:16.07 | 3:32.56 | 50707 | 66662
5 | 14:48.63 | 3:15.32 | 66663 | 81319
6 | 18:04.20 | 4:10.56 | 81320 | 100125
7 | 22:15.01 | 3:32.15 | 100126 | 116040
8 | 25:47.16 | 2:32.46 | 116041 | 127486
9 | 28:19.62 | 2:53.15 | 127487 | 140476
10 | 31:13.02 | 3:56.44 | 140477 | 158220
11 | 35:09.46 | 4:40.68 | 158221 | 179288
12 | 39:50.39 | 2:35.01 | 179289 | 190914
13 | 42:25.40 | 3:24.49 | 190915 | 206263
14 | 45:50.14 | 3:38.09 | 206264 | 222622
15 | 49:28.23 | 2:42.20 | 222623 | 234792
Track 1
Filename F:\MUSIC\0\POSTS\Body & Soul Love ~ Under Cover [2CD] (2005)\cd2\01 - The Detroit Spinners - It's A Shame.wav
Pre-gap length 0:00:02.00
Peak level 100.0 %
Extraction speed 2.5 X
Track quality 99.9 %
Test CRC 633FF0AA
Copy CRC 633FF0AA
Accurately ripped (confidence 1) [B270837A] (AR v2)
Copy OK
Track 2
Filename F:\MUSIC\0\POSTS\Body & Soul Love ~ Under Cover [2CD] (2005)\cd2\02 - Grace Jones - Private Life.wav
Pre-gap length 0:00:02.58
Peak level 100.0 %
Extraction speed 3.6 X
Track quality 100.0 %
Test CRC C4EAB7A6
Copy CRC C4EAB7A6
Accurately ripped (confidence 1) [506854B4] (AR v2)
Copy OK
Track 3
Filename F:\MUSIC\0\POSTS\Body & Soul Love ~ Under Cover [2CD] (2005)\cd2\03 - New Edition - Telephone Man.wav
Pre-gap length 0:00:02.58
Peak level 100.0 %
Extraction speed 4.0 X
Track quality 100.0 %
Test CRC B37F48D5
Copy CRC B37F48D5
Accurately ripped (confidence 1) [E41C8A41] (AR v2)
Copy OK
Track 4
Filename F:\MUSIC\0\POSTS\Body & Soul Love ~ Under Cover [2CD] (2005)\cd2\04 - Lou Rawls - You'll Never Find Another Love Like Mine.wav
Pre-gap length 0:00:02.58
Peak level 89.1 %
Extraction speed 4.2 X
Track quality 100.0 %
Test CRC 11863941
Copy CRC 11863941
Accurately ripped (confidence 1) [9108A3E1] (AR v2)
Copy OK
Track 5
Filename F:\MUSIC\0\POSTS\Body & Soul Love ~ Under Cover [2CD] (2005)\cd2\05 - James & Bobby Purify - I'm Your Puppet.wav
Pre-gap length 0:00:02.58
Peak level 99.9 %
Extraction speed 4.3 X
Track quality 100.0 %
Test CRC 848D6763
Copy CRC 848D6763
Accurately ripped (confidence 1) [11205A8E] (AR v2)
Copy OK
Track 6
Filename F:\MUSIC\0\POSTS\Body & Soul Love ~ Under Cover [2CD] (2005)\cd2\06 - Earth, Wind & Fire - You Can't Hide Love.wav
Pre-gap length 0:00:02.58
Peak level 100.0 %
Extraction speed 4.8 X
Track quality 100.0 %
Test CRC F1E0FAFB
Copy CRC F1E0FAFB
Accurately ripped (confidence 1) [262E0DC8] (AR v2)
Copy OK
Track 7
Filename F:\MUSIC\0\POSTS\Body & Soul Love ~ Under Cover [2CD] (2005)\cd2\07 - MAZE featuring FRANKIE BEVERLY - Joy And Pain.wav
Pre-gap length 0:00:02.58
Peak level 100.0 %
Extraction speed 5.0 X
Track quality 100.0 %
Test CRC 14DD7740
Copy CRC 14DD7740
Accurately ripped (confidence 1) [A4A54C13] (AR v2)
Copy OK
Track 8
Filename F:\MUSIC\0\POSTS\Body & Soul Love ~ Under Cover [2CD] (2005)\cd2\08 - Gladys Knight & The Pips - Part Time Love.wav
Pre-gap length 0:00:02.58
Peak level 100.0 %
Extraction speed 4.8 X
Track quality 100.0 %
Test CRC D38F9EE0
Copy CRC D38F9EE0
Accurately ripped (confidence 1) [87E9C87E] (AR v2)
Copy OK
Track 9
Filename F:\MUSIC\0\POSTS\Body & Soul Love ~ Under Cover [2CD] (2005)\cd2\09 - The Temptations - I Wish It Would Rain.wav
Pre-gap length 0:00:02.58
Peak level 100.0 %
Extraction speed 5.0 X
Track quality 100.0 %
Test CRC 7E7FE9F4
Copy CRC 7E7FE9F4
Accurately ripped (confidence 1) [E4E64526] (AR v2)
Copy OK
Track 10
Filename F:\MUSIC\0\POSTS\Body & Soul Love ~ Under Cover [2CD] (2005)\cd2\10 - Shirley Brown - Woman To Woman.wav
Pre-gap length 0:00:02.58
Peak level 95.1 %
Extraction speed 5.5 X
Track quality 100.0 %
Test CRC EE44C019
Copy CRC EE44C019
Accurately ripped (confidence 1) [915CF61B] (AR v2)
Copy OK
Track 11
Filename F:\MUSIC\0\POSTS\Body & Soul Love ~ Under Cover [2CD] (2005)\cd2\11 - Atlantic Starr - Touch A Four Leaf Clover.wav
Pre-gap length 0:00:02.58
Peak level 100.0 %
Extraction speed 5.8 X
Track quality 100.0 %
Test CRC 2705F259
Copy CRC 2705F259
Accurately ripped (confidence 1) [BE01B288] (AR v2)
Copy OK
Track 12
Filename F:\MUSIC\0\POSTS\Body & Soul Love ~ Under Cover [2CD] (2005)\cd2\12 - Etta James - I'd Rather Go Blind.wav
Pre-gap length 0:00:02.58
Peak level 100.0 %
Extraction speed 4.1 X
Track quality 99.9 %
Test CRC 04D2146F
Copy CRC 04D2146F
Accurately ripped (confidence 1) [B9138D47] (AR v2)
Copy OK
Track 13
Filename F:\MUSIC\0\POSTS\Body & Soul Love ~ Under Cover [2CD] (2005)\cd2\13 - Tavares - Check It Out.wav
Pre-gap length 0:00:02.58
Peak level 100.0 %
Extraction speed 5.9 X
Track quality 100.0 %
Test CRC C1D2BED9
Copy CRC C1D2BED9
Accurately ripped (confidence 1) [3485ABC5] (AR v2)
Copy OK
Track 14
Filename F:\MUSIC\0\POSTS\Body & Soul Love ~ Under Cover [2CD] (2005)\cd2\14 - Rose Royce - I'm Going Down.wav
Pre-gap length 0:00:02.58
Peak level 100.0 %
Extraction speed 4.9 X
Track quality 99.9 %
Test CRC D45BC909
Copy CRC D45BC909
Accurately ripped (confidence 1) [6E1E0F3D] (AR v2)
Copy OK
Track 15
Filename F:\MUSIC\0\POSTS\Body & Soul Love ~ Under Cover [2CD] (2005)\cd2\15 - William Bell & Judy Clay - Private Number.wav
Pre-gap length 0:00:02.58
Peak level 100.0 %
Extraction speed 5.9 X
Track quality 100.0 %
Test CRC EE606724
Copy CRC EE606724
Accurately ripped (confidence 1) [6BC02629] (AR v2)
Copy OK
All tracks accurately ripped
No errors occurred
End of status report
==== Log checksum 05132E5B65B97D08FB68F81618F4C9817C992B9EC5430FBFB26EF47FE70C97BE ====
 
Содержание индексной карты (.CUE)
REM GENRE Soul
REM DATE 2005
REM DISCID D80C3A0F
REM COMMENT "ExactAudioCopy v1.0b3"
PERFORMER "Various"
TITLE "Body & Soul ''Love Undercover'' (disc 2)"
FILE "01 - The Detroit Spinners - It's A Shame.wav" WAVE
TRACK 01 AUDIO
TITLE "It's A Shame"
PERFORMER "The Detroit Spinners"
INDEX 01 00:00:00
TRACK 02 AUDIO
TITLE "Private Life"
PERFORMER "Grace Jones"
INDEX 00 03:07:57
FILE "02 - Grace Jones - Private Life.wav" WAVE
INDEX 01 00:00:00
TRACK 03 AUDIO
TITLE "Telephone Man"
PERFORMER "New Edition"
INDEX 00 04:01:50
FILE "03 - New Edition - Telephone Man.wav" WAVE
INDEX 01 00:00:00
TRACK 04 AUDIO
TITLE "You'll Never Find Another Love Like Mine"
PERFORMER "Lou Rawls"
INDEX 00 03:58:26
FILE "04 - Lou Rawls - You'll Never Find Another Love Like Mine.wav" WAVE
INDEX 01 00:00:00
TRACK 05 AUDIO
TITLE "I'm Your Puppet"
PERFORMER "James & Bobby Purify"
INDEX 00 03:29:73
FILE "05 - James & Bobby Purify - I'm Your Puppet.wav" WAVE
INDEX 01 00:00:00
TRACK 06 AUDIO
TITLE "You Can't Hide Love"
PERFORMER "Earth, Wind & Fire"
INDEX 00 03:12:49
FILE "06 - Earth, Wind & Fire - You Can't Hide Love.wav" WAVE
INDEX 01 00:00:00
TRACK 07 AUDIO
TITLE "Joy And Pain"
PERFORMER "Maze featuring Frankie Beverly"
INDEX 00 04:07:73
FILE "07 - Maze featuring Frankie Beverly - Joy And Pain.wav" WAVE
INDEX 01 00:00:00
TRACK 08 AUDIO
TITLE "Part Time Love"
PERFORMER "Gladys Knight & The Pips"
INDEX 00 03:29:32
FILE "08 - Gladys Knight & The Pips - Part Time Love.wav" WAVE
INDEX 01 00:00:00
TRACK 09 AUDIO
TITLE "I Wish It Would Rain"
PERFORMER "The Temptations"
INDEX 00 02:29:63
FILE "09 - The Temptations - I Wish It Would Rain.wav" WAVE
INDEX 01 00:00:00
TRACK 10 AUDIO
TITLE "Woman To Woman"
PERFORMER "Shirley Brown"
INDEX 00 02:50:32
FILE "10 - Shirley Brown - Woman To Woman.wav" WAVE
INDEX 01 00:00:00
TRACK 11 AUDIO
TITLE "Touch A Four Leaf Clover"
PERFORMER "Atlantic Starr"
INDEX 00 03:53:61
FILE "11 - Atlantic Starr - Touch A Four Leaf Clover.wav" WAVE
INDEX 01 00:00:00
TRACK 12 AUDIO
TITLE "I'd Rather Go Blind"
PERFORMER "Etta James"
INDEX 00 04:38:10
FILE "12 - Etta James - I'd Rather Go Blind.wav" WAVE
INDEX 01 00:00:00
TRACK 13 AUDIO
TITLE "Check It Out"
PERFORMER "Tavares"
INDEX 00 02:32:18
FILE "13 - Tavares - Check It Out.wav" WAVE
INDEX 01 00:00:00
TRACK 14 AUDIO
TITLE "I'm Going Down"
PERFORMER "Rose Royce"
INDEX 00 03:21:66
FILE "14 - Rose Royce - I'm Going Down.wav" WAVE
INDEX 01 00:00:00
TRACK 15 AUDIO
TITLE "Private Number"
PERFORMER "William Bell & Judy Clay"
INDEX 00 03:35:26
FILE "15 - William Bell & Judy Clay - Private Number.wav" WAVE
INDEX 01 00:00:00
Приватный:
Нет (DHT включён)
Размер:
798.14 Мб (836,913,356 байт) » файлов: 46
Участники:
0 раздают, 0 качают (0 участников всего)
Внешние участники:
2 раздают, 1 качают (3 участников всего) [ Обновить ]
Есть вопросы - пишите личное сообщение пользователю M0p94ok.
06:11
42
Нет комментариев. Ваш будет первым!