Поиск

(Crossover Jazz, Trumpet Jazz, Standards) Arturo Sandoval - A Time for Love - 2010, FLAC (tracks+.cue) lossless

(Crossover Jazz, Trumpet Jazz, Standards) Arturo Sandoval - A Time for Love - 2010, FLAC (tracks+.cue) lossless
Треклист:
Arturo Sandoval - A Time for Love
Жанр: Crossover Jazz, Trumpet Jazz, Standards
Год издания диска: 2010
Издатель (лейбл): ?? Concord Music Group
Номер по каталогу: CJA-31792-02
Аудио кодек: FLAC (*.flac)
Тип рипа: tracks+.cue
Битрейт аудио: lossless
Продолжительность: 1:08:13
Источник: Собственные рипы
Наличие сканов в содержимом раздачи: да
Треклист:
01. Apres un Reve (After the Dream) - 5:10
02. Emily - 4:26
03. Speak Low - 4:38
04. Estate - 4:01
05. A Time for Love - 5:06
06. Pavane Pour Une Infante Defunte (Pavane for a Dead Princess) - 5:15
07. I Loves You Porgy - 5:15
08. Oblivion (How to Say Goodbye) - 5:27
09. Pavane - 4:53
10. Smile - 4:03
11. All the Way - 4:06
12. Smoke Gets in Your Eyes - 4:25
13. Windmills of Your Mind - 5:35
14. Every Time We Say Goodbye - 5:54
.
 
МУЗЫКАНТЫ
Arturo Sandoval - Trumpet, Flugelhorn, Vocals
Shelly Berg - Piano
Chuck Berghofer - Bass
Gregg Field - Drums, Percussion
Приглашённые музыканты:
Chris Botti - Trumpet
Kenny Barron - Piano
Monica Mancini - Vocals
Состав оркестра смотрите на обложке.
 
Лог создания рипа
Exact Audio Copy V0.99 prebeta 5 from 4. May 2009
EAC extraction logfile from 18. September 2010, 3:08
Arturo Sandoval / A Time for Love
Used drive : HL-DT-STDVD-RAM GSA-H55N Adapter: 0 ID: 2
Read mode : Secure
Utilize accurate stream : Yes
Defeat audio cache : Yes
Make use of C2 pointers : No
Read offset correction : 102
Overread into Lead-In and Lead-Out : Yes
Fill up missing offset samples with silence : Yes
Delete leading and trailing silent blocks : No
Null samples used in CRC calculations : Yes
Used interface : Installed external ASPI interface
Gap handling : Appended to previous track
Used output format : User Defined Encoder
Selected bitrate : 128 kBit/s
Quality : High
Add ID3 tag : No
Command line compressor : G:\Program Files\Exact Audio Copy\Encoder\flac.exe
Additional command line options : -V -8 -T "Genre=%m" -T "Artist=%a" -T "Title=%t" -T "Album=%g" -T "Date=%y" -T "Tracknumber=%n" -T "Comment=EACpb5 -8" %s
TOC of the extracted CD
Track | Start | Length | Start sector | End sector
---------------------------------------------------------
1 | 0:00.00 | 5:09.60 | 0 | 23234
2 | 5:09.60 | 4:25.71 | 23235 | 43180
3 | 9:35.56 | 4:37.57 | 43181 | 64012
4 | 14:13.38 | 4:00.73 | 64013 | 82085
5 | 18:14.36 | 5:06.26 | 82086 | 105061
6 | 23:20.62 | 5:14.43 | 105062 | 128654
7 | 28:35.30 | 5:15.17 | 128655 | 152296
8 | 33:50.47 | 5:26.65 | 152297 | 176811
9 | 39:17.37 | 4:52.69 | 176812 | 198780
10 | 44:10.31 | 4:02.66 | 198781 | 216996
11 | 48:13.22 | 4:05.62 | 216997 | 235433
12 | 52:19.09 | 4:24.45 | 235434 | 255278
13 | 56:43.54 | 5:35.09 | 255279 | 280412
14 | 62:18.63 | 5:54.12 | 280413 | 306974
Track 1
Filename F:\WAV\01 - Apres un Reve (After the Dream).wav
Pre-gap length 0:00:02.00
Peak level 98.7 %
Track quality 99.9 %
Test CRC AAF779D0
Copy CRC AAF779D0
Cannot be verified as accurate (confidence 2) [06D380C5], AccurateRip returned [A047B2C3]
Copy OK
Track 2
Filename F:\WAV\02 - Emily.wav
Pre-gap length 0:00:01.40
Peak level 98.6 %
Track quality 99.9 %
Test CRC 5C7B813A
Copy CRC 5C7B813A
Cannot be verified as accurate (confidence 2) [7C0C338F], AccurateRip returned [70CFE400]
Copy OK
Track 3
Filename F:\WAV\03 - Speak Low.wav
Peak level 98.6 %
Track quality 100.0 %
Test CRC 85943CF3
Copy CRC 85943CF3
Cannot be verified as accurate (confidence 2) [A92F4282], AccurateRip returned [B54FDE8C]
Copy OK
Track 4
Filename F:\WAV\04 - Estate.wav
Pre-gap length 0:00:01.50
Peak level 98.6 %
Track quality 100.0 %
Test CRC 202435B5
Copy CRC 202435B5
Cannot be verified as accurate (confidence 2) [8DCF437F], AccurateRip returned [32A3F0BC]
Copy OK
Track 5
Filename F:\WAV\05 - A Time for Love.wav
Pre-gap length 0:00:02.02
Peak level 98.6 %
Track quality 100.0 %
Test CRC 0DEA13D3
Copy CRC 0DEA13D3
Cannot be verified as accurate (confidence 2) [D7AD9B57], AccurateRip returned [ED034AC7]
Copy OK
Track 6
Filename F:\WAV\06 - Pavane Pour Une Infante Defunte (Pavane for a Dead Princess).wav
Pre-gap length 0:00:01.66
Peak level 98.6 %
Track quality 100.0 %
Test CRC B77393B8
Copy CRC B77393B8
Cannot be verified as accurate (confidence 2) [97AFFF7D], AccurateRip returned [75051E7D]
Copy OK
Track 7
Filename F:\WAV\07 - I Loves You Porgy.wav
Pre-gap length 0:00:02.05
Peak level 98.6 %
Track quality 100.0 %
Test CRC B64148DE
Copy CRC B64148DE
Cannot be verified as accurate (confidence 2) [49E9C977], AccurateRip returned [BD052B4C]
Copy OK
Track 8
Filename F:\WAV\08 - Oblivion (How to Say Goodbye).wav
Peak level 98.6 %
Track quality 100.0 %
Test CRC 9C4D488C
Copy CRC 9C4D488C
Cannot be verified as accurate (confidence 2) [56BF513D], AccurateRip returned [265FA642]
Copy OK
Track 9
Filename F:\WAV\09 - Pavane.wav
Pre-gap length 0:00:02.35
Peak level 98.6 %
Track quality 100.0 %
Test CRC 69B35E4F
Copy CRC 69B35E4F
Cannot be verified as accurate (confidence 2) [BEB2EA6D], AccurateRip returned [B59A9723]
Copy OK
Track 10
Filename F:\WAV\10 - Smile.wav
Pre-gap length 0:00:02.10
Peak level 98.6 %
Track quality 100.0 %
Test CRC A0828389
Copy CRC A0828389
Cannot be verified as accurate (confidence 2) [10CDD600], AccurateRip returned [821A5AC0]
Copy OK
Track 11
Filename F:\WAV\11 - All the Way.wav
Pre-gap length 0:00:03.00
Peak level 98.6 %
Track quality 100.0 %
Test CRC 522F4EB0
Copy CRC 522F4EB0
Cannot be verified as accurate (confidence 2) [B850520C], AccurateRip returned [C5355B8C]
Copy OK
Track 12
Filename F:\WAV\12 - Smoke Gets in Your Eyes.wav
Pre-gap length 0:00:03.12
Peak level 98.6 %
Track quality 100.0 %
Test CRC 69D7B0B6
Copy CRC 69D7B0B6
Cannot be verified as accurate (confidence 2) [AF482213], AccurateRip returned [6C5B8A83]
Copy OK
Track 13
Filename F:\WAV\13 - Windmills of Your Mind.wav
Pre-gap length 0:00:03.24
Peak level 98.5 %
Track quality 100.0 %
Test CRC 9D7B03D2
Copy CRC 9D7B03D2
Cannot be verified as accurate (confidence 2) [C8E8C4E9], AccurateRip returned [44DF5AEE]
Copy OK
Track 14
Filename F:\WAV\14 - Every Time We Say Goodbye.wav
Pre-gap length 0:00:03.03
Peak level 98.6 %
Track quality 100.0 %
Test CRC 33663159
Copy CRC 33663159
Cannot be verified as accurate (confidence 2) [61DBA9B7], AccurateRip returned [4EE1139F]
Copy OK
No tracks could be verified as accurate
You may have a different pressing from the one(s) in the database
No errors occurred
End of status report
 
Содержание индексной карты (.CUE)
REM GENRE Jazz
REM DATE 2010
REM DISCID B70FFD0E
REM COMMENT "ExactAudioCopy v0.99pb5"
CATALOG 0888072317925
PERFORMER "Arturo Sandoval"
TITLE "A Time for Love"
FILE "01 - Apres un Reve (After the Dream).wav" WAVE
TRACK 01 AUDIO
TITLE "Apres un Reve (After the Dream)"
PERFORMER "Arturo Sandoval"
ISRC USC4R1021308
INDEX 01 00:00:00
TRACK 02 AUDIO
TITLE "Emily"
PERFORMER "Arturo Sandoval"
ISRC USC4R1021309
INDEX 00 05:08:20
FILE "02 - Emily.wav" WAVE
INDEX 01 00:00:00
FILE "03 - Speak Low.wav" WAVE
TRACK 03 AUDIO
TITLE "Speak Low"
PERFORMER "Arturo Sandoval"
ISRC USC4R1021310
INDEX 01 00:00:00
TRACK 04 AUDIO
TITLE "Estate"
PERFORMER "Arturo Sandoval"
ISRC USC4R1021311
INDEX 00 04:36:07
FILE "04 - Estate.wav" WAVE
INDEX 01 00:00:00
TRACK 05 AUDIO
TITLE "A Time for Love"
PERFORMER "Arturo Sandoval"
ISRC USC4R1021312
INDEX 00 03:58:71
FILE "05 - A Time for Love.wav" WAVE
INDEX 01 00:00:00
TRACK 06 AUDIO
TITLE "Pavane Pour Une Infante Defunte (Pavane for a Dead Princess)"
PERFORMER "Arturo Sandoval"
ISRC USC4R1021313
INDEX 00 05:04:35
FILE "06 - Pavane Pour Une Infante Defunte (Pavane for a Dead Princess).wav" WAVE
INDEX 01 00:00:00
TRACK 07 AUDIO
TITLE "I Loves You Porgy"
PERFORMER "Arturo Sandoval"
ISRC USC4R1021314
INDEX 00 05:12:38
FILE "07 - I Loves You Porgy.wav" WAVE
INDEX 01 00:00:00
FILE "08 - Oblivion (How to Say Goodbye).wav" WAVE
TRACK 08 AUDIO
TITLE "Oblivion (How to Say Goodbye)"
PERFORMER "Arturo Sandoval"
ISRC USC4R1021315
INDEX 01 00:00:00
TRACK 09 AUDIO
TITLE "Pavane"
PERFORMER "Arturo Sandoval"
ISRC USC4R1021316
INDEX 00 05:24:30
FILE "09 - Pavane.wav" WAVE
INDEX 01 00:00:00
TRACK 10 AUDIO
TITLE "Smile"
PERFORMER "Arturo Sandoval"
ISRC USC4R1021317
INDEX 00 04:50:59
FILE "10 - Smile.wav" WAVE
INDEX 01 00:00:00
TRACK 11 AUDIO
TITLE "All the Way"
PERFORMER "Arturo Sandoval"
ISRC USC4R1021318
INDEX 00 03:59:66
FILE "11 - All the Way.wav" WAVE
INDEX 01 00:00:00
TRACK 12 AUDIO
TITLE "Smoke Gets in Your Eyes"
PERFORMER "Arturo Sandoval"
ISRC USC4R1021319
INDEX 00 04:02:50
FILE "12 - Smoke Gets in Your Eyes.wav" WAVE
INDEX 01 00:00:00
TRACK 13 AUDIO
TITLE "Windmills of Your Mind"
PERFORMER "Arturo Sandoval"
ISRC USC4R1021320
INDEX 00 04:21:21
FILE "13 - Windmills of Your Mind.wav" WAVE
INDEX 01 00:00:00
TRACK 14 AUDIO
TITLE "Every Time We Say Goodbye"
PERFORMER "Arturo Sandoval"
ISRC USC4R1021321
INDEX 00 05:32:06
FILE "14 - Every Time We Say Goodbye.wav" WAVE
INDEX 01 00:00:00
Альбом медленной спокойной музыки (ЕСМ нервно курит). Я бы даже сказал - черезчур спокойной и настолько медленной, что известные мелодии не сразу узнаёшь. Эту музыку можно слушать и можно использовать как ненавязчивый (романтический?) музыкальный фон. Вторая половина альбома мне понравилась больше, возможно потому, что она изобилует моими любимыми композициями (Smoke Gets in Your Eyes, Windmills of Your Mind, Smile, Pavane ...). Вот только ранее не думал, что они могут быть настолько тягучими.
17:00
469
Нет комментариев. Ваш будет первым!