Поиск

(jazz, world fusion) Omar Sosa & Adam Rudolph - Pictures Of Soul (2004) FLAC (tracks+.cue) lossless

(jazz, world fusion) Omar Sosa & Adam Rudolph - Pictures Of Soul (2004) FLAC (tracks+.cue) lossless
Треклист:


Omar Sosa & Adam Rudolph - Pictures Of Soul (2004)

Жанр: jazz, world fusion
Год издания диска: 2004
Издатель (лейбл): Ota Records
Аудио кодек: FLAC (*.flac)
Тип рипа: tracks+.cue
Битрейт аудио: lossless
Продолжительность: 56`39
Источник (релизер): what.cd, LiquidPlumber
Наличие сканов в содержимом раздачи:фиг
Треклист:
1. Portrait
2. The Call
3. Kachirumba
4. Eye of the Blackbird
5. Dreams
6. The Wandering Night
7. Cuzco Refrain
8. Intermezzo
9. Trace of Burning Stars
10. Green Silence
11. Winter of the Flower
12. Sweet Summer
13. Serenade for Two
14. Kiss of the Rain
15. Pilgrimage
16. Black Exit
 
Лог создания рипа
Exact Audio Copy V0.99 prebeta 5 from 4. May 2009
EAC extraction logfile from 30. August 2010, 7:36
Omar Sosa & Adam Rudolph / Pictures of Soul
Used drive : HL-DT-STDVDRAM GH40N Adapter: 0 ID: 0
Read mode : Secure
Utilize accurate stream : Yes
Defeat audio cache : Yes
Make use of C2 pointers : No
Read offset correction : 667
Overread into Lead-In and Lead-Out : No
Fill up missing offset samples with silence : Yes
Delete leading and trailing silent blocks : No
Null samples used in CRC calculations : Yes
Used interface : Native Win32 interface for Win NT & 2000
Gap handling : Appended to previous track
Used output format : User Defined Encoder
Selected bitrate : 768 kBit/s
Quality : High
Add ID3 tag : No
Command line compressor : C:\Program Files (x86)\Exact Audio Copy\FLAC\FLAC.EXE
Additional command line options : -V -8 -T "artist=%a" -T "title=%t" -T "album=%g" -T "date=%y" -T "tracknumber=%n" -T "genre=%m" %s
TOC of the extracted CD
Track | Start | Length | Start sector | End sector
---------------------------------------------------------
1 | 0:00.00 | 4:02.43 | 0 | 18192
2 | 4:02.43 | 4:50.33 | 18193 | 39975
3 | 8:53.01 | 4:53.39 | 39976 | 61989
4 | 13:46.40 | 2:04.38 | 61990 | 71327
5 | 15:51.03 | 1:35.47 | 71328 | 78499
6 | 17:26.50 | 4:49.05 | 78500 | 100179
7 | 22:15.55 | 2:52.38 | 100180 | 113117
8 | 25:08.18 | 1:08.70 | 113118 | 118287
9 | 26:17.13 | 3:22.40 | 118288 | 133477
10 | 29:39.53 | 5:05.29 | 133478 | 156381
11 | 34:45.07 | 5:23.30 | 156382 | 180636
12 | 40:08.37 | 3:35.16 | 180637 | 196777
13 | 43:43.53 | 2:45.70 | 196778 | 209222
14 | 46:29.48 | 1:26.56 | 209223 | 215728
15 | 47:56.29 | 8:15.07 | 215729 | 252860
16 | 56:11.36 | 0:27.50 | 252861 | 254935
Track 1
Filename F:\EAC Rips\Omar Sosa & Adam Rudolph - Pictures of Soul - 01 - Portrait.wav
Pre-gap length 0:00:02.00
Peak level 98.8 %
Track quality 100.0 %
Test CRC 342C042F
Copy CRC 342C042F
Accurately ripped (confidence 1) [7A820485]
Copy OK
Track 2
Filename F:\EAC Rips\Omar Sosa & Adam Rudolph - Pictures of Soul - 02 - The Call.wav
Peak level 98.8 %
Track quality 100.0 %
Test CRC 0CAB73EB
Copy CRC 0CAB73EB
Accurately ripped (confidence 1) [BD40FF8C]
Copy OK
Track 3
Filename F:\EAC Rips\Omar Sosa & Adam Rudolph - Pictures of Soul - 03 - Kachirumba.wav
Pre-gap length 0:00:01.00
Peak level 98.8 %
Track quality 99.9 %
Test CRC 70479E1B
Copy CRC 70479E1B
Accurately ripped (confidence 1) [31655C67]
Copy OK
Track 4
Filename F:\EAC Rips\Omar Sosa & Adam Rudolph - Pictures of Soul - 04 - Eye of the Blackbird.wav
Pre-gap length 0:00:01.00
Peak level 98.8 %
Track quality 99.9 %
Test CRC 086B6A66
Copy CRC 086B6A66
Accurately ripped (confidence 1) [3B0FD39C]
Copy OK
Track 5
Filename F:\EAC Rips\Omar Sosa & Adam Rudolph - Pictures of Soul - 05 - Dreams.wav
Peak level 98.8 %
Track quality 99.8 %
Test CRC 4EBC9B99
Copy CRC 4EBC9B99
Accurately ripped (confidence 1) [8D3FADFD]
Copy OK
Track 6
Filename F:\EAC Rips\Omar Sosa & Adam Rudolph - Pictures of Soul - 06 - The Wandering Night.wav
Peak level 98.8 %
Track quality 100.0 %
Test CRC C224BA70
Copy CRC C224BA70
Accurately ripped (confidence 1) [9A5466B4]
Copy OK
Track 7
Filename F:\EAC Rips\Omar Sosa & Adam Rudolph - Pictures of Soul - 07 - Cuzco Refrain.wav
Peak level 98.8 %
Track quality 100.0 %
Test CRC 2027FF89
Copy CRC 2027FF89
Accurately ripped (confidence 1) [2DA87600]
Copy OK
Track 8
Filename F:\EAC Rips\Omar Sosa & Adam Rudolph - Pictures of Soul - 08 - Intermezzo.wav
Peak level 98.8 %
Track quality 100.0 %
Test CRC 62944D9F
Copy CRC 62944D9F
Accurately ripped (confidence 1) [B2246031]
Copy OK
Track 9
Filename F:\EAC Rips\Omar Sosa & Adam Rudolph - Pictures of Soul - 09 - Trace of Burning Stars.wav
Pre-gap length 0:00:01.00
Peak level 98.8 %
Track quality 100.0 %
Test CRC 938FD80F
Copy CRC 938FD80F
Accurately ripped (confidence 1) [E7880DAD]
Copy OK
Track 10
Filename F:\EAC Rips\Omar Sosa & Adam Rudolph - Pictures of Soul - 10 - Green Silence.wav
Peak level 98.8 %
Track quality 99.9 %
Test CRC B4457B2D
Copy CRC B4457B2D
Accurately ripped (confidence 1) [ECE7B48D]
Copy OK
Track 11
Filename F:\EAC Rips\Omar Sosa & Adam Rudolph - Pictures of Soul - 11 - Winter of the Flower.wav
Peak level 98.8 %
Track quality 99.9 %
Test CRC ACE39B37
Copy CRC ACE39B37
Accurately ripped (confidence 1) [6672A993]
Copy OK
Track 12
Filename F:\EAC Rips\Omar Sosa & Adam Rudolph - Pictures of Soul - 12 - Sweet Summer.wav
Pre-gap length 0:00:01.00
Peak level 86.6 %
Track quality 99.9 %
Test CRC 6C393D52
Copy CRC 6C393D52
Accurately ripped (confidence 1) [18EED490]
Copy OK
Track 13
Filename F:\EAC Rips\Omar Sosa & Adam Rudolph - Pictures of Soul - 13 - Serenade for Two.wav
Peak level 71.5 %
Track quality 100.0 %
Test CRC BDE8BBD3
Copy CRC BDE8BBD3
Accurately ripped (confidence 1) [E39AD2F6]
Copy OK
Track 14
Filename F:\EAC Rips\Omar Sosa & Adam Rudolph - Pictures of Soul - 14 - Kiss of the Rain.wav
Peak level 98.8 %
Track quality 100.0 %
Test CRC A644D3E8
Copy CRC A644D3E8
Accurately ripped (confidence 1) [05130D9E]
Copy OK
Track 15
Filename F:\EAC Rips\Omar Sosa & Adam Rudolph - Pictures of Soul - 15 - Pilgrimage.wav
Peak level 98.8 %
Track quality 99.9 %
Test CRC 86827383
Copy CRC 86827383
Accurately ripped (confidence 1) [7F090964]
Copy OK
Track 16
Filename F:\EAC Rips\Omar Sosa & Adam Rudolph - Pictures of Soul - 16 - Black Exit.wav
Peak level 21.5 %
Track quality 100.0 %
Test CRC 7F416DFA
Copy CRC 7F416DFA
Accurately ripped (confidence 1) [A176B569]
Copy OK
All tracks accurately ripped
No errors occurred
End of status report
 
Содержание индексной карты (.CUE)
REM GENRE Jazz
REM DATE 2004
REM DISCID E80D4710
REM COMMENT "ExactAudioCopy v0.99pb5"
PERFORMER "Omar Sosa & Adam Rudolph"
TITLE "Pictures of Soul"
FILE "01 - Portrait.wav" WAVE
TRACK 01 AUDIO
TITLE "Portrait"
PERFORMER "Omar Sosa & Adam Rudolph"
INDEX 01 00:00:00
FILE "02 - The Call.wav" WAVE
TRACK 02 AUDIO
TITLE "The Call"
PERFORMER "Omar Sosa & Adam Rudolph"
INDEX 01 00:00:00
TRACK 03 AUDIO
TITLE "Kachirumba"
PERFORMER "Omar Sosa & Adam Rudolph"
INDEX 00 04:49:33
FILE "03 - Kachirumba.wav" WAVE
INDEX 01 00:00:00
TRACK 04 AUDIO
TITLE "Eye of the Blackbird"
PERFORMER "Omar Sosa & Adam Rudolph"
INDEX 00 04:52:39
FILE "04 - Eye of the Blackbird.wav" WAVE
INDEX 01 00:00:00
FILE "05 - Dreams.wav" WAVE
TRACK 05 AUDIO
TITLE "Dreams"
PERFORMER "Omar Sosa & Adam Rudolph"
INDEX 01 00:00:00
FILE "06 - The Wandering Night.wav" WAVE
TRACK 06 AUDIO
TITLE "The Wandering Night"
PERFORMER "Omar Sosa & Adam Rudolph"
INDEX 01 00:00:00
FILE "07 - Cuzco Refrain.wav" WAVE
TRACK 07 AUDIO
TITLE "Cuzco Refrain"
PERFORMER "Omar Sosa & Adam Rudolph"
INDEX 01 00:00:00
FILE "08 - Intermezzo.wav" WAVE
TRACK 08 AUDIO
TITLE "Intermezzo"
PERFORMER "Omar Sosa & Adam Rudolph"
INDEX 01 00:00:00
TRACK 09 AUDIO
TITLE "Trace of Burning Stars"
PERFORMER "Omar Sosa & Adam Rudolph"
INDEX 00 01:07:70
FILE "09 - Trace of Burning Stars.wav" WAVE
INDEX 01 00:00:00
FILE "10 - Green Silence.wav" WAVE
TRACK 10 AUDIO
TITLE "Green Silence"
PERFORMER "Omar Sosa & Adam Rudolph"
INDEX 01 00:00:00
FILE "11 - Winter of the Flower.wav" WAVE
TRACK 11 AUDIO
TITLE "Winter of the Flower"
PERFORMER "Omar Sosa & Adam Rudolph"
INDEX 01 00:00:00
TRACK 12 AUDIO
TITLE "Sweet Summer"
PERFORMER "Omar Sosa & Adam Rudolph"
INDEX 00 05:22:30
FILE "12 - Sweet Summer.wav" WAVE
INDEX 01 00:00:00
FILE "13 - Serenade for Two.wav" WAVE
TRACK 13 AUDIO
TITLE "Serenade for Two"
PERFORMER "Omar Sosa & Adam Rudolph"
INDEX 01 00:00:00
FILE "14 - Kiss of the Rain.wav" WAVE
TRACK 14 AUDIO
TITLE "Kiss of the Rain"
PERFORMER "Omar Sosa & Adam Rudolph"
INDEX 01 00:00:00
FILE "15 - Pilgrimage.wav" WAVE
TRACK 15 AUDIO
TITLE "Pilgrimage"
PERFORMER "Omar Sosa & Adam Rudolph"
INDEX 01 00:00:00
FILE "16 - Black Exit.wav" WAVE
TRACK 16 AUDIO
TITLE "Black Exit"
PERFORMER "Omar Sosa & Adam Rudolph"
INDEX 01 00:00:00
 
Состав
Adam Rudolph Dumbek, Percussion, Piano, Composer, Conga, Cymbals, Gong, Tabla, Vocals, Producer, Liner Notes, Djembe, Cajon, Okonkolo, Udu, Hand Drums, Overtone Flute, Reed Flute
Omar Sosa Piano, Composer, Harmonium, Producer, Liner Notes, Fender Rhodes, Piano Effects
другие релизы
17:59
640
Нет комментариев. Ваш будет первым!