Поиск

(Latin Jazz, Hard Bop, Contemporary Jazz) Erez Bar-Noy - At Last - 2009, FLAC (tracks+.cue) lossless

(Latin Jazz, Hard Bop, Contemporary Jazz) Erez Bar-Noy - At Last - 2009, FLAC (tracks+.cue) lossless
Треклист:
Erez Bar-Noy - At Last - 2009 (Self Released)
Jazz - Made In Israel (Каталог раздач)
Жанр: Latin Jazz, Hard Bop, Contemporary Jazz
Страна исполнителя: Israel
Год издания: 2009
Страна - производитель диска: Israel
Издатель (лейбл): Self Released
Аудио кодек: FLAC (*.flac)
Тип рипа: (tracks + .cue)
Корректность рипа: EAC ripped, correct read offset, test and copy, accuratelly ripped
Битрейт аудио: lossless
Наличие сканов в содержимом раздачи: да
Продолжительность: 56:08
Источник (релизер): мой рип, оригинал подарен 30277
Трэклист:
1. Emek Israel 6:25 (Erez Bar-Noy)
2. My Flower 6:44 (Erez Bar-Noy)
3. Captain Marshall 4:28 (Erez Bar-Noy)
4. Skylark 6:51 (Hoagy Carmichael, John Mercer)
5. Minor Mishap 5:45 (Tommy Flanagan)
6. Beit Yanay 6:25 (Erez Bar-Noy)
7. Three Little words 4:35 (Bert Kalmar, Harry Ruby)
8. That's All 8:14 (Bob Haymes, Alan Scot Brandt)
9. Sofi's Blues 6:40 (Erez Bar-Noy)
Состав:
Erez Bar-Noy - Tenor Saxophone
Amos Hoffman - Guitar
Yonatan Levi - Bass
Shai Zelman - Drums
Recorded at Keshet Studios, Jerusalem
Один из ведущих Израильских джазовых композиторов и саксофонистов, очень активный музыкант на местной джазовой сцене, выпускник Rimon Jazz School (Tel Aviv) и Mannes College (N.Y). Провел много лет в Нью Йорке, после возвращения учавствовал в важных израильских джазовых событиях - Red Sea Jazz Festival, Tel Aviv Jazz Festival, Shuni Festival. Он сотрудничает как с лучшими музыкантами Израиля - Shay Salzmann, Avishai Cohen, Amos Hoffman, Danny Gottfried, Arale Kaminski и Amikam Kimelman; так и с зарубежными - Guy Barker, Abraham Burton, Randy Barker, Odeon Pope, Mamelo Gaitanopoulos, Billy Harper, George Garzon. Хотя его музыка и следует американской джазовой традиции, в ней очень легко прослушиваются местные корни. Это оригинальный израильский хард-боп. В своем собственном составе Эрез показывает виртуозность исполнителя и изобретательность композитора. Он также обучает новое поколение израильских джазовых музыкантов в Talma Yalin Music School, Rimon Jazz School, Tel Aviv Conservatorium
 
Содержание индексной карты (.CUE):
REM DATE 2009
REM DISCID 820D2809
REM COMMENT "ExactAudioCopy v0.99pb4"
PERFORMER "Erez Bar-Noy"
TITLE "At Last"
FILE "01 - Emek Israel.wav" WAVE
TRACK 01 AUDIO
TITLE "Emek Israel"
PERFORMER "Erez Bar-Noy"
INDEX 01 00:00:00
TRACK 02 AUDIO
TITLE "My Flower"
PERFORMER "Erez Bar-Noy"
INDEX 00 06:21:11
FILE "02 - My Flower.wav" WAVE
INDEX 01 00:00:00
TRACK 03 AUDIO
TITLE "Captain Marshall"
PERFORMER "Erez Bar-Noy"
INDEX 00 06:43:03
FILE "03 - Captain Marshall.wav" WAVE
INDEX 01 00:00:00
TRACK 04 AUDIO
TITLE "Skylark"
PERFORMER "Erez Bar-Noy"
INDEX 00 04:27:72
FILE "04 - Skylark.wav" WAVE
INDEX 01 00:00:00
FILE "05 - Minor Mishap.wav" WAVE
TRACK 05 AUDIO
TITLE "Minor Mishap"
PERFORMER "Erez Bar-Noy"
INDEX 01 00:00:00
FILE "06 - Beit Yanay.wav" WAVE
TRACK 06 AUDIO
TITLE "Beit Yanay"
PERFORMER "Erez Bar-Noy"
INDEX 01 00:00:00
FILE "07 - Three Little Words.wav" WAVE
TRACK 07 AUDIO
TITLE "Three Little Words"
PERFORMER "Erez Bar-Noy"
INDEX 01 00:00:00
TRACK 08 AUDIO
TITLE "That's All"
PERFORMER "Erez Bar-Noy"
INDEX 00 04:34:42
FILE "08 - That's All.wav" WAVE
INDEX 01 00:00:00
TRACK 09 AUDIO
TITLE "Sofi's Blues"
PERFORMER "Erez Bar-Noy"
INDEX 00 08:12:64
FILE "09 - Sofi's Blues.wav" WAVE
INDEX 01 00:00:00
 
Лог создания рипа
Exact Audio Copy V0.99 prebeta 4 from 23. January 2008
EAC extraction logfile from 26. August 2010, 9:40
Erez Bar-Noy / At Last
Used drive : HL-DT-STDVD-RAM GH22NP20 Adapter: 0 ID: 0
Read mode : Secure
Utilize accurate stream : Yes
Defeat audio cache : Yes
Make use of C2 pointers : No
Read offset correction : 102
Overread into Lead-In and Lead-Out : No
Fill up missing offset samples with silence : Yes
Delete leading and trailing silent blocks : No
Null samples used in CRC calculations : Yes
Used interface : Installed external ASPI interface
Gap handling : Appended to previous track
Used output format : User Defined Encoder
Selected bitrate : 320 kBit/s
Quality : High
Add ID3 tag : No
Command line compressor : C:\Program Files\Exact Audio Copy\Flac\flac.exe
Additional command line options : -V -8 -T "artist=%a" -T "title=%t" -T "album=%g" -T "date=%y" -T "tracknumber=%n" -T "genre=%m" %s
TOC of the extracted CD
Track | Start | Length | Start sector | End sector
---------------------------------------------------------
1 | 0:00.00 | 6:22.23 | 0 | 28672
2 | 6:22.23 | 6:44.58 | 28673 | 59030
3 | 13:07.06 | 4:28.62 | 59031 | 79192
4 | 17:35.68 | 6:51.26 | 79193 | 110043
5 | 24:27.19 | 5:45.65 | 110044 | 135983
6 | 30:13.09 | 6:25.64 | 135984 | 164922
7 | 36:38.73 | 4:35.39 | 164923 | 185586
8 | 41:14.37 | 8:14.00 | 185587 | 222636
9 | 49:28.37 | 6:40.17 | 222637 | 252653
Track 1
Filename D:\music\Musicgate's rips\Erez Bar-Noy - At Last - 2009 (Self Released)\01 - Emek Israel.wav
Pre-gap length 0:00:02.00
Peak level 98.8 %
Track quality 100.0 %
Test CRC 2C1F9C34
Copy CRC 2C1F9C34
Track not present in AccurateRip database
Copy OK
Track 2
Filename D:\music\Musicgate's rips\Erez Bar-Noy - At Last - 2009 (Self Released)\02 - My Flower.wav
Pre-gap length 0:00:01.16
Peak level 100.0 %
Track quality 99.9 %
Test CRC C9CFB1CA
Copy CRC C9CFB1CA
Track not present in AccurateRip database
Copy OK
Track 3
Filename D:\music\Musicgate's rips\Erez Bar-Noy - At Last - 2009 (Self Released)\03 - Captain Marshall.wav
Pre-gap length 0:00:01.73
Peak level 100.0 %
Track quality 100.0 %
Test CRC 77410257
Copy CRC 77410257
Track not present in AccurateRip database
Copy OK
Track 4
Filename D:\music\Musicgate's rips\Erez Bar-Noy - At Last - 2009 (Self Released)\04 - Skylark.wav
Pre-gap length 0:00:00.86
Peak level 85.2 %
Track quality 100.0 %
Test CRC A67B60B7
Copy CRC A67B60B7
Track not present in AccurateRip database
Copy OK
Track 5
Filename D:\music\Musicgate's rips\Erez Bar-Noy - At Last - 2009 (Self Released)\05 - Minor Mishap.wav
Peak level 98.8 %
Track quality 100.0 %
Test CRC 3D28C991
Copy CRC 3D28C991
Track not present in AccurateRip database
Copy OK
Track 6
Filename D:\music\Musicgate's rips\Erez Bar-Noy - At Last - 2009 (Self Released)\06 - Beit Yanay.wav
Peak level 100.0 %
Track quality 99.9 %
Test CRC 71075178
Copy CRC 71075178
Track not present in AccurateRip database
Copy OK
Track 7
Filename D:\music\Musicgate's rips\Erez Bar-Noy - At Last - 2009 (Self Released)\07 - Three Little Words.wav
Peak level 100.0 %
Track quality 100.0 %
Test CRC F7491374
Copy CRC F7491374
Track not present in AccurateRip database
Copy OK
Track 8
Filename D:\music\Musicgate's rips\Erez Bar-Noy - At Last - 2009 (Self Released)\08 - That's All.wav
Pre-gap length 0:00:00.96
Peak level 100.0 %
Track quality 100.0 %
Test CRC 28B6E3EA
Copy CRC 28B6E3EA
Track not present in AccurateRip database
Copy OK
Track 9
Filename D:\music\Musicgate's rips\Erez Bar-Noy - At Last - 2009 (Self Released)\09 - Sofi's Blues.wav
Pre-gap length 0:00:01.14
Peak level 100.0 %
Track quality 100.0 %
Test CRC F5038181
Copy CRC F5038181
Track not present in AccurateRip database
Copy OK
None of the tracks are present in the AccurateRip database
No errors occurred
End of status report
 
Лог проверки качества
Я не сидирую все свои раздачи подолгу, только новые (до 3х первых сидов)
За своими раздачами не слежу, и старые топики не читаю - если нет сидов или раздача находится в архиве, пришлите письмо, и я вернусь
Предлагаю скачавшим максимально долго оставаться на раздаче - весь рейтинг будет ваш.
Заботьтесь о своем рейтинге - конвертируйте в мп3 и выкладывайте в соответствующем разделе
18:01
339
Нет комментариев. Ваш будет первым!