Поиск

(Crossover Jazz, Hard Bop, Post-Bop) John Klemmer - Lifestyle (Living and Loving) - 1977 (1989 MCA), FLAC (tracks+.cue), lossless

Треклист:
John Klemmer - Lifestyle (Living and Loving)
Жанр: Crossover Jazz, Hard Bop, Post-Bop
Страна-производитель диска: США
Год издания: 1989
Издатель (лейбл): MCA
Аудиокодек: FLAC (*.flac)
Тип рипа: tracks+.cue
Битрейт аудио: lossless
Продолжительность: 46:37
Источник (релизер): row3bo4t (what)
Наличие сканов в содержимом раздачи: нет
Треклист:
01. Lifestyle (Klemmer) - 8:20
02. Caress (Klemmer) - 3:18
03. Quiet Afternoon (Clarke) - 4:58
04. Tough and Tender (Klemmer) - 5:24
05. Pure Love (Klemmer) - 6:59
06. Purity (Klemmer) - 7:22
07. Forever (Klemmer) - 4:58
08. Lovin' Feelings (Klemmer) - 5:18
Состав:
John Klemmer - tenor saxophones, echoplex, phaser
Milcho Leviev - piano
Chuck Domanico - electric bass
Harvey Mason - drums
Chino Valdez - percussion
Bernie Fleischer - flutes
Recorded at Mama Jo's, North Hollywood, CA on February-March 1977.
 
Лог создания рипа
X Lossless Decoder version 20100711 (120.5)
XLD extraction logfile from 2010-08-09 08:57:43 -0500
John Klemmer / Lifestyle (Living and Loving)
Used drive : MATSHITA DVD-R UJ-868 (revision KB19)
Use cdparanoia mode : YES (CDParanoia III 10.2 engine)
Disable audio cache : OK for the drive with cache less than 2750KB
Make use of C2 pointers : NO
Read offset correction : 667
Max retry count : 100
Gap status : Analyzed, Appended
TOC of the extracted CD
Track | Start | Length | Start sector | End sector
---------------------------------------------------------
1 | 00:00:37 | 08:19:68 | 37 | 37529
2 | 08:20:30 | 03:18:17 | 37530 | 52396
3 | 11:38:47 | 04:57:38 | 52397 | 74709
4 | 16:36:10 | 05:23:52 | 74710 | 98986
5 | 21:59:62 | 06:58:53 | 98987 | 130389
6 | 28:58:40 | 07:22:30 | 130390 | 163569
7 | 36:20:70 | 04:58:02 | 163570 | 185921
8 | 41:18:72 | 05:18:10 | 185922 | 209781
List of alternate offset correction values
# | Absolute | Relative | Confidence
------------------------------------------
1 | 102 | -565 | 1
Track 01
Filename : /Users/andyrowe/Desktop/01 - Lifestyle.flac
/Users/andyrowe/Desktop/01 - Lifestyle.mp3
Pre-gap length : 00:02:37
CRC32 hash (test run) : D2270366
CRC32 hash : D2270366
CRC32 hash (skip zero) : C0265FAE
AccurateRip signature : 4AADFD7C
->Accurately ripped! (confidence 1)
(matched with the different offset correction value;
calculated using an additional offset of -565;
the signature after correction is: A0BDC678)
Statistics
Read error : 0
Skipped (treated as error) : 0
Edge jitter error (maybe fixed) : 0
Atom jitter error (maybe fixed) : 0
Drift error (maybe fixed) : 0
Dropped bytes error (maybe fixed) : 0
Duplicated bytes error (maybe fixed) : 0
Inconsistency in error sectors : 0
Track 02
Filename : /Users/andyrowe/Desktop/02 - Caress.flac
/Users/andyrowe/Desktop/02 - Caress.mp3
Pre-gap length : 00:01:57
CRC32 hash (test run) : 49CF0C03
CRC32 hash : 49CF0C03
CRC32 hash (skip zero) : B235ECC1
AccurateRip signature : 4BAB2BD6
->Accurately ripped! (confidence 1)
(matched with the different offset correction value;
calculated using an additional offset of -565;
the signature after correction is: 7B050B82)
Statistics
Read error : 0
Skipped (treated as error) : 0
Edge jitter error (maybe fixed) : 0
Atom jitter error (maybe fixed) : 0
Drift error (maybe fixed) : 0
Dropped bytes error (maybe fixed) : 0
Duplicated bytes error (maybe fixed) : 0
Inconsistency in error sectors : 0
Track 03
Filename : /Users/andyrowe/Desktop/03 - Quiet Afternoon.flac
/Users/andyrowe/Desktop/03 - Quiet Afternoon.mp3
Pre-gap length : 00:01:54
CRC32 hash (test run) : 57A66C17
CRC32 hash : 57A66C17
CRC32 hash (skip zero) : 6C417733
AccurateRip signature : CF444BEC
->Accurately ripped! (confidence 1)
(matched with the different offset correction value;
calculated using an additional offset of -565;
the signature after correction is: FF82E473)
Statistics
Read error : 0
Skipped (treated as error) : 0
Edge jitter error (maybe fixed) : 0
Atom jitter error (maybe fixed) : 0
Drift error (maybe fixed) : 0
Dropped bytes error (maybe fixed) : 0
Duplicated bytes error (maybe fixed) : 0
Inconsistency in error sectors : 0
Track 04
Filename : /Users/andyrowe/Desktop/04 - Tough and Tender.flac
/Users/andyrowe/Desktop/04 - Tough and Tender.mp3
Pre-gap length : 00:02:70
CRC32 hash (test run) : 694F43A6
CRC32 hash : 694F43A6
CRC32 hash (skip zero) : E8083404
AccurateRip signature : 98695E09
->Accurately ripped! (confidence 1)
(matched with the different offset correction value;
calculated using an additional offset of -565;
the signature after correction is: 6BEA5A04)
Statistics
Read error : 0
Skipped (treated as error) : 0
Edge jitter error (maybe fixed) : 0
Atom jitter error (maybe fixed) : 0
Drift error (maybe fixed) : 0
Dropped bytes error (maybe fixed) : 0
Duplicated bytes error (maybe fixed) : 0
Inconsistency in error sectors : 0
Track 05
Filename : /Users/andyrowe/Desktop/05 - Pure Love.flac
/Users/andyrowe/Desktop/05 - Pure Love.mp3
Pre-gap length : 00:03:19
CRC32 hash (test run) : 4C23D834
CRC32 hash : 4C23D834
CRC32 hash (skip zero) : BD554F02
AccurateRip signature : A871AE3A
->Accurately ripped! (confidence 1)
(matched with the different offset correction value;
calculated using an additional offset of -565;
the signature after correction is: 40B66387)
Statistics
Read error : 0
Skipped (treated as error) : 0
Edge jitter error (maybe fixed) : 0
Atom jitter error (maybe fixed) : 0
Drift error (maybe fixed) : 0
Dropped bytes error (maybe fixed) : 0
Duplicated bytes error (maybe fixed) : 0
Inconsistency in error sectors : 0
Track 06
Filename : /Users/andyrowe/Desktop/06 - Purity.flac
/Users/andyrowe/Desktop/06 - Purity.mp3
Pre-gap length : 00:02:55
CRC32 hash (test run) : 3DB93FF0
CRC32 hash : 3DB93FF0
CRC32 hash (skip zero) : B94D3470
AccurateRip signature : B6419C8B
->Accurately ripped! (confidence 1)
(matched with the different offset correction value;
calculated using an additional offset of -565;
the signature after correction is: CED00321)
Statistics
Read error : 0
Skipped (treated as error) : 0
Edge jitter error (maybe fixed) : 0
Atom jitter error (maybe fixed) : 0
Drift error (maybe fixed) : 0
Dropped bytes error (maybe fixed) : 0
Duplicated bytes error (maybe fixed) : 0
Inconsistency in error sectors : 0
Track 07
Filename : /Users/andyrowe/Desktop/07 - Forever.flac
/Users/andyrowe/Desktop/07 - Forever.mp3
Pre-gap length : 00:02:57
CRC32 hash (test run) : 2664F905
CRC32 hash : 2664F905
CRC32 hash (skip zero) : ACEDEBDF
AccurateRip signature : 94BA7CFA
->Accurately ripped! (confidence 1)
(matched with the different offset correction value;
calculated using an additional offset of -565;
the signature after correction is: F8DDD221)
Statistics
Read error : 0
Skipped (treated as error) : 0
Edge jitter error (maybe fixed) : 0
Atom jitter error (maybe fixed) : 0
Drift error (maybe fixed) : 0
Dropped bytes error (maybe fixed) : 0
Duplicated bytes error (maybe fixed) : 0
Inconsistency in error sectors : 0
Track 08
Filename : /Users/andyrowe/Desktop/08 - Lovin' Feelings.flac
/Users/andyrowe/Desktop/08 - Lovin' Feelings.mp3
Pre-gap length : 00:02:07
CRC32 hash (test run) : 067C3AD1
CRC32 hash : 067C3AD1
CRC32 hash (skip zero) : D6331A1B
AccurateRip signature : 0968678E
->Accurately ripped! (confidence 1)
(matched with the different offset correction value;
calculated using an additional offset of -565;
the signature after correction is: 1DF4AF9C)
Statistics
Read error : 0
Skipped (treated as error) : 0
Edge jitter error (maybe fixed) : 0
Atom jitter error (maybe fixed) : 0
Drift error (maybe fixed) : 0
Dropped bytes error (maybe fixed) : 0
Duplicated bytes error (maybe fixed) : 0
Inconsistency in error sectors : 0
No errors occurred
End of status report
 
Содержание индексной карты (.CUE)
TITLE "Lifestyle (Living and Loving)"
PERFORMER "John Klemmer"
REM GENRE "Jazz"
REM DATE 1977
REM DISCID 580AED08
FILE "01 - Lifestyle.wav" WAVE
TRACK 01 AUDIO
TITLE "Lifestyle"
INDEX 00 00:00:00
INDEX 01 00:00:37
TRACK 02 AUDIO
TITLE "Caress"
INDEX 00 08:18:11
FILE "02 - Caress.wav" WAVE
INDEX 01 00:00:00
TRACK 03 AUDIO
TITLE "Quiet Afternoon"
INDEX 00 03:16:38
FILE "03 - Quiet Afternoon.wav" WAVE
INDEX 01 00:00:00
TRACK 04 AUDIO
TITLE "Tough and Tender"
INDEX 00 04:54:43
FILE "04 - Tough and Tender.wav" WAVE
INDEX 01 00:00:00
TRACK 05 AUDIO
TITLE "Pure Love"
INDEX 00 05:20:33
FILE "05 - Pure Love.wav" WAVE
INDEX 01 00:00:00
TRACK 06 AUDIO
TITLE "Purity"
INDEX 00 06:55:73
FILE "06 - Purity.wav" WAVE
INDEX 01 00:00:00
TRACK 07 AUDIO
TITLE "Forever"
INDEX 00 07:19:48
FILE "07 - Forever.wav" WAVE
INDEX 01 00:00:00
TRACK 08 AUDIO
TITLE "Lovin' Feelings"
INDEX 00 04:55:70
FILE "08 - Lovin' Feelings.wav" WAVE
INDEX 01 00:00:00
 
Отчет CUETools
[CUETools log; Date: 18.10.2013 1:13:50; Version: 2.1.4]
Pregap length 00:00:37.
[CTDB TOCID: 4nqEYVsukE1Jh9kU0K46IIMvzqI-] disk not present in database.
[AccurateRip ID: 000e8bed-006091e7-580aed08] found.
Track [ CRC | V2 ] Status
01 [4aadfd7c|d7832435] (0+0/2) No match
02 [4bab2bd6|eb326189] (0+0/2) No match
03 [cf444bec|0f0c5781] (0+0/2) No match
04 [98695e09|41f6612f] (0+0/2) No match
05 [a871ae3a|0d9a2556] (0+0/2) No match
06 [b6419c8b|f2dd0747] (0+0/2) No match
07 [94ba7cfa|a2d750c2] (0+0/2) No match
08 [0968678e|4f9a0cf3] (0+0/2) No match
Offsetted by -565:
01 [a0bdc678] (1/2) Accurately ripped
02 [7b050b82] (1/2) Accurately ripped
03 [ff82e473] (1/2) Accurately ripped
04 [6bea5a04] (1/2) Accurately ripped
05 [40b66387] (1/2) Accurately ripped
06 [ced00321] (1/2) Accurately ripped
07 [f8ddd221] (1/2) Accurately ripped
08 [1df4af9c] (1/2) Accurately ripped
Track Peak [ CRC32 ] [W/O NULL]
-- 100,0 [CA4A8FC9] [26781341]
01 99,9 [D2270366] [C0265FAE]
02 100,0 [49CF0C03] [B235ECC1]
03 99,6 [57A66C17] [6C417733]
04 82,9 [694F43A6] [E8083404]
05 74,5 [4C23D834] [BD554F02]
06 84,1 [3DB93FF0] [B94D3470]
07 100,0 [2664F905] [ACEDEBDF]
08 99,6 [067C3AD1] [D6331A1B]
 
Об альбоме (сборнике)
Highly recommended easy listening jazz from 1977. One of Klemmer's masterpieces of understated soft jazz. Establishes a great melodic jazz mood, and maintains it throughout every track on the cd.
Приватный:
Нет (DHT включён)
Размер:
254.11 Мб (266,456,131 байт) » файлов: 13
Участники:
0 раздают, 0 качают (0 участников всего)
Внешние участники:
2 раздают, 1 качают (3 участников всего) [ Обновить ]
No seeders - write personal message to M0p94ok. Нет сидеров - пишите в личку M0p94ok.
06:19
194
Нет комментариев. Ваш будет первым!