Поиск

(Crossover Jazz, Contemporary Jazz, Hard Bop) John Klemmer - Touch - 1975 (1991 MCA), FLAC (tracks+.cue), lossless

(Crossover Jazz, Contemporary Jazz, Hard Bop) John Klemmer - Touch - 1975 (1991 MCA), FLAC (tracks+.cue), lossless
Треклист:
John Klemmer - Touch
Жанр: Crossover Jazz, Contemporary Jazz, Hard Bop
Страна-производитель диска: США
Год издания: 1991
Издатель (лейбл): MCA
Номер по каталогу: MCAD-37152
Аудиокодек: FLAC (*.flac)
Тип рипа: tracks+.cue
Битрейт аудио: lossless
Продолжительность: 48:33
Источник (релизер): bafcats (what)
Наличие сканов в содержимом раздачи: нет
Треклист:
01. Touch (Klemmer) - 6:49
02. Glass Dolphins (Klemmer) - 3:27
03. Waterwheels (Klemmer) - 7:08
04. Free Fall Lover (Klemmer) - 6:45
05. Sleeping Eyes (Klemmer) - 6:55
06. Body Pulse (Klemmer) - 5:25
07. Tone Row Weaver (Klemmer) - 8:02
08. Walk with Me My Love and Dream (Klemmer) - 4:02
Состав:
John Klemmer - vocals, flute, tenor saxophone, electric piano, Fender Rhodes piano
David Batteau - vocals
Mitch Holder - acoustic guitar, 12-string guitar
Larry Carlton - acoustic guitar
Dave Grusin - electric piano, Fender Rhodes piano
Chuck Domanico, Chuck Rainey - electric bass
Harvey Mason, Sr., John Guerin - drums
Joe Porcaro, Emil Richards - percussion
Recorded at Mama Jo's, North Hollywood, CA in July-August, 1975.
 
Лог создания рипа
Exact Audio Copy V0.99 prebeta 4 from 23. January 2008
EAC extraction logfile from 12. May 2009, 22:49
John Klemmer / Touch
Used drive : HL-DT-STDVD+-RW GWA4164B Adapter: 0 ID: 1
Read mode : Secure
Utilize accurate stream : Yes
Defeat audio cache : Yes
Make use of C2 pointers : No
Read offset correction : 102
Overread into Lead-In and Lead-Out : No
Fill up missing offset samples with silence : Yes
Delete leading and trailing silent blocks : No
Null samples used in CRC calculations : Yes
Used interface : Native Win32 interface for Win NT & 2000
Gap handling : Appended to previous track
Used output format : User Defined Encoder
Selected bitrate : 768 kBit/s
Quality : High
Add ID3 tag : No
Command line compressor : C:\Program Files\Exact Audio Copy\Flac\flac.exe
Additional command line options : -V -8 -T "artist=%a" -T "title=%t" -T "album=%g" -T "date=%y" -T "tracknumber=%n" -T "genre=%m" %s
TOC of the extracted CD
Track | Start | Length | Start sector | End sector
---------------------------------------------------------
1 | 0:00.00 | 6:48.55 | 0 | 30654
2 | 6:48.55 | 3:27.00 | 30655 | 46179
3 | 10:15.55 | 7:08.35 | 46180 | 78314
4 | 17:24.15 | 6:45.10 | 78315 | 108699
5 | 24:09.25 | 6:55.22 | 108700 | 139846
6 | 31:04.47 | 5:24.73 | 139847 | 164219
7 | 36:29.45 | 8:02.05 | 164220 | 200374
8 | 44:31.50 | 4:02.35 | 200375 | 218559
Track 1
Filename C:\Documents and Settings\James\Desktop\stuffs\EACrips\John Klemmer - - Touch\01 - Touch .wav
Pre-gap length 0:00:02.00
Peak level 100.0 %
Track quality 99.9 %
Test CRC B0280505
Copy CRC B0280505
Accurately ripped (confidence 4) [0B359176]
Copy OK
Track 2
Filename C:\Documents and Settings\James\Desktop\stuffs\EACrips\John Klemmer - - Touch\02 - Glass Dolphins .wav
Peak level 77.8 %
Track quality 100.0 %
Test CRC 753DD108
Copy CRC 753DD108
Accurately ripped (confidence 5) [C7066BDD]
Copy OK
Track 3
Filename C:\Documents and Settings\James\Desktop\stuffs\EACrips\John Klemmer - - Touch\03 - Waterwheels .wav
Peak level 63.5 %
Track quality 100.0 %
Test CRC B429F03C
Copy CRC B429F03C
Accurately ripped (confidence 5) [2E4D5042]
Copy OK
Track 4
Filename C:\Documents and Settings\James\Desktop\stuffs\EACrips\John Klemmer - - Touch\04 - Free Fall Lover .wav
Peak level 100.0 %
Track quality 100.0 %
Test CRC 978EE34C
Copy CRC 978EE34C
Accurately ripped (confidence 4) [21DE8132]
Copy OK
Track 5
Filename C:\Documents and Settings\James\Desktop\stuffs\EACrips\John Klemmer - - Touch\05 - Sleeping Eyes .wav
Peak level 100.0 %
Track quality 100.0 %
Test CRC 5E054AA8
Copy CRC 5E054AA8
Accurately ripped (confidence 4) [90DAD02E]
Copy OK
Track 6
Filename C:\Documents and Settings\James\Desktop\stuffs\EACrips\John Klemmer - - Touch\06 - Body Pulse .wav
Peak level 100.0 %
Track quality 100.0 %
Test CRC 61828111
Copy CRC 61828111
Accurately ripped (confidence 4) [1F152431]
Copy OK
Track 7
Filename C:\Documents and Settings\James\Desktop\stuffs\EACrips\John Klemmer - - Touch\07 - Tone Row Weaver .wav
Peak level 97.2 %
Track quality 100.0 %
Test CRC 5319469D
Copy CRC 5319469D
Accurately ripped (confidence 5) [FCAD872E]
Copy OK
Track 8
Filename C:\Documents and Settings\James\Desktop\stuffs\EACrips\John Klemmer - - Touch\08 - Walk With My Love and Dream .wav
Peak level 57.8 %
Track quality 100.0 %
Test CRC 1A91E819
Copy CRC 1A91E819
Accurately ripped (confidence 4) [E1CAD597]
Copy OK
All tracks accurately ripped
No errors occurred
End of status report
 
Содержание индексной карты (.CUE)
REM GENRE Jazz
REM DATE 1975
REM DISCID 5F0B6208
REM COMMENT "ExactAudioCopy v0.99pb4"
PERFORMER "John Klemmer"
TITLE "Touch"
FILE "01 - Touch.wav" WAVE
TRACK 01 AUDIO
TITLE "Touch"
PERFORMER "John Klemmer"
INDEX 01 00:00:00
FILE "02 - Glass Dolphins.wav" WAVE
TRACK 02 AUDIO
TITLE "Glass Dolphins"
PERFORMER "John Klemmer"
INDEX 01 00:00:00
FILE "03 - Waterwheels.wav" WAVE
TRACK 03 AUDIO
TITLE "Waterwheels"
PERFORMER "John Klemmer"
INDEX 01 00:00:00
FILE "04 - Free Fall Lover.wav" WAVE
TRACK 04 AUDIO
TITLE "Free Fall Lover"
PERFORMER "John Klemmer"
INDEX 01 00:00:00
FILE "05 - Sleeping Eyes.wav" WAVE
TRACK 05 AUDIO
TITLE "Sleeping Eyes"
PERFORMER "John Klemmer"
INDEX 01 00:00:00
FILE "06 - Body Pulse.wav" WAVE
TRACK 06 AUDIO
TITLE "Body Pulse"
PERFORMER "John Klemmer"
INDEX 01 00:00:00
FILE "07 - Tone Row Weaver.wav" WAVE
TRACK 07 AUDIO
TITLE "Tone Row Weaver"
PERFORMER "John Klemmer"
INDEX 01 00:00:00
FILE "08 - Walk with Me My Love and Dream.wav" WAVE
TRACK 08 AUDIO
TITLE "Walk with Me My Love and Dream"
PERFORMER "John Klemmer"
INDEX 01 00:00:00
 
Отчет CUETools
[CUETools log; Date: 18.10.2013 0:54:29; Version: 2.1.4]
[CTDB TOCID: 7UrtjoQGJfYTuY.GeCbKT2ZepXY-] found.
Track | CTDB Status
1 | (7/7) Accurately ripped
2 | (7/7) Accurately ripped
3 | (7/7) Accurately ripped
4 | (7/7) Accurately ripped
5 | (7/7) Accurately ripped
6 | (7/7) Accurately ripped
7 | (7/7) Accurately ripped
8 | (6/7) Accurately ripped
[AccurateRip ID: 000f0ee4-0064f0e9-5f0b6208] found.
Track [ CRC | V2 ] Status
01 [0b359176|687b2431] (08+05/20) Accurately ripped
02 [c7066bdd|50d859bc] (09+05/21) Accurately ripped
03 [2e4d5042|a5c5acd1] (09+05/21) Accurately ripped
04 [21de8132|a2e6fd46] (08+05/20) Accurately ripped
05 [90dad02e|a174c6f2] (08+05/19) Accurately ripped
06 [1f152431|2bffb721] (08+05/20) Accurately ripped
07 [fcad872e|7d51e1a4] (09+05/20) Accurately ripped
08 [e1cad597|dab4599b] (08+04/19) Accurately ripped
Offsetted by -10:
01 [80874093] (05/20) Accurately ripped
02 [fd09f71e] (05/21) Accurately ripped
03 [744ec489] (05/21) Accurately ripped
04 [45ddbe94] (05/20) Accurately ripped
05 [f538212e] (04/19) Accurately ripped
06 [4f260076] (05/20) Accurately ripped
07 [5586c9f9] (04/20) Accurately ripped
08 [c50216c4] (05/19) Accurately ripped
Track Peak [ CRC32 ] [W/O NULL] [ LOG ]
-- 100,0 [6C46A341] [166F232B]
01 100,0 [B0280505] [DD44598F] CRC32
02 77,8 [753DD108] [EB95CB5E] CRC32
03 63,5 [B429F03C] [2BB9DF2F] CRC32
04 100,0 [978EE34C] [EC66718E] CRC32
05 100,0 [5E054AA8] [DE33AA12] CRC32
06 100,0 [61828111] [02F1FF73] CRC32
07 97,2 [5319469D] [49CE70BD] CRC32
08 57,8 [1A91E819] [A8F17D3B] CRC32
 
Об альбоме (сборнике)
Originally recorded in the mid-70's, who could ever forget the sax sounds of John Klemmer! A one-of-a-kind wonder where the artistry came together perfectly.
The title song "Touch" is the opening number and was a big hit back in its day. It still sounds fresh today. "Sleeping Eyes" is riveting full of soul with John on the sax and Dave Grusin on the keyboards. Other musicians that round out the group are two from Tom Scott's L.A. Express. "Body Pulse" is pretty hot. "Tone Row Weaver" begins very toned-down but hold on as it builds into an 8-minute long seering number.
Smooth jazz stations still play this one 30 years later. While some purport this sound to be the predecessor to the "smooth jazz" genre, I feel it is a perfect balance between the hot sounds of the 60's and the cool sax sounds of the 80's. This is a fine collection that is perfect for kicking back and relaxing. Pure joy!
-- by Beverly Praiswater
(Smooth Jazz) John Klemmer - Touch (MFSL UDCD 522) - 1975, FLAC (tracks+.cue), lossless
Приватный:
Нет (DHT включён)
Размер:
276.62 Мб (290,059,018 байт) » файлов: 13
Участники:
0 раздают, 1 качают (1 участников всего)
Внешние участники:
2 раздают, 1 качают (3 участников всего) [ Обновить ]
Скорость:
1.10 Мб/c 0/c
For power users only: no seeders - write personal message to M0p94ok. Для power user: нет сидеров - пишите в личку M0p94ok.
06:19
169
Нет комментариев. Ваш будет первым!