Поиск

(Jazz-Pop, Easy Listening) Bert Kaempfert Collection - Bye Bye Blues (1966) + To The Good Life (1973) {Double set} - 1990, FLAC (image+.cue), lossless

(Jazz-Pop, Easy Listening) Bert Kaempfert Collection - Bye Bye Blues (1966) + To The Good Life (1973) {Double set} - 1990, FLAC (image+.cue), lossless
Треклист:
Bert Kaempfert Collection – Bye Bye Blues (1966) + To The Good Life (1973)

Жанр: Jazz-Pop, Easy Listening
Год издания: 1990
Издатель (лейбл): Polydor
Номер по каталогу: 843 710-2
Аудиокодек: FLAC (*.flac)
Тип рипа: image+.cue
Битрейт аудио: lossless
Продолжительность: 36:35 / 37:00
Источник (релизер): eMule
Наличие сканов в содержимом раздачи: да 
 
 
 
Bye Bye Blues (1966)
Треклист:
01. Bye Bye Blues (2:57)
02. Remember When (3:03)
03. When You're Smiling (2:48)
04. Tahitian Sunset (2:34)
05. Once In A While (3:14)
06. Steady Does It (3:15)
07. It Makes No Difference (3:17)
08. You Stepped Out Of A Dream (3:08)
09. Wiederseh'n (2:52)
10. I'm Beginning To See The Light (3:07)
11. Melina (3:08)
12. Out Of Nowhere (3:11)
 
 
Лог создания рипа
Exact Audio Copy V0.99 prebeta 5 from 4. May 2009
EAC extraction logfile from 25. July 2009, 9:37
Bert Kaempfert / The Bert Kaempfert Collection (Disc 1 of 2) - Bye Bye Blues
Used drive : HL-DT-STCD-RW GCE-8527B Adapter: 5 ID: 1
Read mode : Secure
Utilize accurate stream : Yes
Defeat audio cache : Yes
Make use of C2 pointers : No
Read offset correction : 6
Overread into Lead-In and Lead-Out : Yes
Fill up missing offset samples with silence : Yes
Delete leading and trailing silent blocks : No
Null samples used in CRC calculations : Yes
Used interface : Installed external ASPI interface
Used output format : Internal WAV Routines
Sample format : 44.100 Hz; 16 Bit; Stereo
TOC of the extracted CD
Track | Start | Length | Start sector | End sector
---------------------------------------------------------
1 | 0:00.33 | 2:57.25 | 33 | 13332
2 | 2:57.58 | 3:02.50 | 13333 | 27032
3 | 6:00.33 | 2:48.12 | 27033 | 39644
4 | 8:48.45 | 2:34.13 | 39645 | 51207
5 | 11:22.58 | 3:14.12 | 51208 | 65769
6 | 14:36.70 | 3:15.13 | 65770 | 80407
7 | 17:52.08 | 3:17.12 | 80408 | 95194
8 | 21:09.20 | 3:08.13 | 95195 | 109307
9 | 24:17.33 | 2:52.00 | 109308 | 122207
10 | 27:09.33 | 3:06.62 | 122208 | 136219
11 | 30:16.20 | 3:08.13 | 136220 | 150332
12 | 33:24.33 | 3:10.50 | 150333 | 164632
Range status and errors
Selected range
Filename G:\Bert Kaempfert - Collection\Bert Kaempfert - The Bert Kaempfert Collection (Disc 1 of 2) - Bye Bye Blues.wav
Peak level 86.1 %
Range quality 100.0 %
Copy CRC 56A58460
Copy OK
No errors occurred
AccurateRip summary
Track 1 accurately ripped (confidence 1) [426BBA19]
Track 2 accurately ripped (confidence 2) [67B9787D]
Track 3 accurately ripped (confidence 2) [ADB6C357]
Track 4 accurately ripped (confidence 2) [24A91416]
Track 5 accurately ripped (confidence 2) [3E704657]
Track 6 accurately ripped (confidence 2) [762E31DA]
Track 7 accurately ripped (confidence 2) [91BB2C80]
Track 8 accurately ripped (confidence 2) [D8B8F796]
Track 9 accurately ripped (confidence 2) [929E7948]
Track 10 accurately ripped (confidence 2) [7BD07B84]
Track 11 accurately ripped (confidence 2) [507ED217]
Track 12 accurately ripped (confidence 2) [7B368497]
All tracks accurately ripped
End of status report
 
Содержание индексной карты (.CUE)
REM GENRE "Easy Listening"
REM DATE 1966
REM DISCID 9E08930C
REM COMMENT "ExactAudioCopy v0.99pb5"
CATALOG 0042284371124
PERFORMER "Bert Kaempfert"
TITLE "Bye Bye Blues"
FILE "Bert Kaempfert - Bye Bye Blues.flac" WAVE
TRACK 01 AUDIO
TITLE "Bye Bye Blues"
PERFORMER "Bert Kaempfert"
INDEX 00 00:00:00
INDEX 01 00:00:33
TRACK 02 AUDIO
TITLE "Remember When"
PERFORMER "Bert Kaempfert"
INDEX 00 02:55:26
INDEX 01 02:57:58
TRACK 03 AUDIO
TITLE "When You're Smiling"
PERFORMER "Bert Kaempfert"
INDEX 00 05:57:14
INDEX 01 06:00:33
TRACK 04 AUDIO
TITLE "Tahitian Sunset"
PERFORMER "Bert Kaempfert"
INDEX 00 08:47:21
INDEX 01 08:48:45
TRACK 05 AUDIO
TITLE "Once In A While"
PERFORMER "Bert Kaempfert"
INDEX 00 11:19:71
INDEX 01 11:22:58
TRACK 06 AUDIO
TITLE "Steady Does It"
PERFORMER "Bert Kaempfert"
INDEX 00 14:34:34
INDEX 01 14:36:70
TRACK 07 AUDIO
TITLE "It Makes No Difference"
PERFORMER "Bert Kaempfert"
INDEX 00 17:47:44
INDEX 01 17:52:08
TRACK 08 AUDIO
TITLE "You Stepped Out Of A Dream"
PERFORMER "Bert Kaempfert"
INDEX 00 21:06:14
INDEX 01 21:09:20
TRACK 09 AUDIO
TITLE "Wiederseh'n"
PERFORMER "Bert Kaempfert"
INDEX 00 24:14:14
INDEX 01 24:17:33
TRACK 10 AUDIO
TITLE "I'm Beginning To See The Light"
PERFORMER "Bert Kaempfert"
INDEX 00 27:07:46
INDEX 01 27:09:33
TRACK 11 AUDIO
TITLE "Melina"
PERFORMER "Bert Kaempfert"
INDEX 00 30:14:09
INDEX 01 30:16:20
TRACK 12 AUDIO
TITLE "Out Of Nowhere"
PERFORMER "Bert Kaempfert"
INDEX 00 33:23:41
INDEX 01 33:24:33
 
AccurateRip
[CUETools log; Date: 16.10.2013 14:41:36; Version: 2.0.9]
Pregap length 00:00:33.
[CTDB TOCID: WeKD5mT9BbWMpCg0KTy6wXsc1XI-] disk not present in database.
[AccurateRip ID: 00101a5f-0096e89f-9e08930c] found.
Track [ CRC ] Status
01 [426bba19] (3/7) Accurately ripped
02 [67b9787d] (4/8) Accurately ripped
03 [adb6c357] (4/8) Accurately ripped
04 [24a91416] (4/8) Accurately ripped
05 [3e704657] (4/8) Accurately ripped
06 [762e31da] (4/8) Accurately ripped
07 [91bb2c80] (4/8) Accurately ripped
08 [d8b8f796] (4/8) Accurately ripped
09 [929e7948] (4/8) Accurately ripped
10 [7bd07b84] (4/8) Accurately ripped
11 [507ed217] (4/8) Accurately ripped
12 [7b368497] (4/8) Accurately ripped
Track Peak [ CRC32 ] [W/O NULL] [ LOG ]
-- 86,1 [56A58460] [7887EDA5] CRC32
01 68,3 [3A1ED837] [DFC3C60D]
02 72,8 [D2AF6FA7] [851F986A]
03 80,2 [EF2A2F58] [52DF8748]
04 75,5 [DA226FE9] [57D053A4]
05 81,5 [8ADCA295] [B6F10B0D]
06 68,8 [99E467D4] [6F4C370F]
07 86,1 [526D00FF] [294B384A]
08 81,2 [862EC5D4] [6A74F99B]
09 71,8 [3C0743B5] [82D129E6]
10 79,9 [86F9348C] [E6A249D1]
11 80,4 [602258A4] [FF50E7FC]
12 83,6 [FE888A00] [AE3313AF]
 
To The Good Life (1973)
Треклист:
01. Take The ''A'' Train (3:15)
02. The Sunny Side Of Life (3:16)
03. My Melancholy Baby (2:55)
04. Time To Dream (2:49)
05. What Is This Thing Called Love? (2:41)
06. Lover's Wonderland (3:42)
07. Wheeling Free (3:25)
08. The Good Life (2:20)
09. Bert's Bossa No. 2 (3:14)
10. Skyliner (3:15)
11. Manhattan Merengue (2:51)
12. Honeysuckle Rose (3:17)
 
 
Лог создания рипа
Exact Audio Copy V0.99 prebeta 5 from 4. May 2009
EAC extraction logfile from 25. July 2009, 9:44
Bert Kaempfert / The Bert Kaempfert Collection (Disc 2 of 2) - To The Good Life
Used drive : HL-DT-STCD-RW GCE-8527B Adapter: 5 ID: 1
Read mode : Secure
Utilize accurate stream : Yes
Defeat audio cache : Yes
Make use of C2 pointers : No
Read offset correction : 6
Overread into Lead-In and Lead-Out : Yes
Fill up missing offset samples with silence : Yes
Delete leading and trailing silent blocks : No
Null samples used in CRC calculations : Yes
Used interface : Installed external ASPI interface
Used output format : Internal WAV Routines
Sample format : 44.100 Hz; 16 Bit; Stereo
TOC of the extracted CD
Track | Start | Length | Start sector | End sector
---------------------------------------------------------
1 | 0:00.33 | 3:14.50 | 33 | 14632
2 | 3:15.08 | 3:16.25 | 14633 | 29357
3 | 6:31.33 | 2:55.37 | 29358 | 42519
4 | 9:26.70 | 2:49.13 | 42520 | 55207
5 | 12:16.08 | 2:41.37 | 55208 | 67319
6 | 14:57.45 | 3:41.38 | 67320 | 83932
7 | 18:39.08 | 3:24.62 | 83933 | 99294
8 | 22:03.70 | 2:20.13 | 99295 | 109807
9 | 24:24.08 | 3:13.62 | 109808 | 124344
10 | 27:37.70 | 3:14.38 | 124345 | 138932
11 | 30:52.33 | 2:50.50 | 138933 | 151732
12 | 33:43.08 | 3:17.12 | 151733 | 166519
Range status and errors
Selected range
Filename G:\Bert Kaempfert - Collection\Bert Kaempfert - The Bert Kaempfert Collection (Disc 2 of 2) - To The Good Life.wav
Peak level 88.7 %
Range quality 100.0 %
Copy CRC 41D67408
Copy OK
No errors occurred
AccurateRip summary
Track 1 accurately ripped (confidence 1) [0C3D4973]
Track 2 accurately ripped (confidence 1) [7A604853]
Track 3 accurately ripped (confidence 2) [B0B4828D]
Track 4 accurately ripped (confidence 2) [F7320D74]
Track 5 accurately ripped (confidence 1) [4330AF7E]
Track 6 accurately ripped (confidence 2) [5D2C2D78]
Track 7 accurately ripped (confidence 2) [AA5B6255]
Track 8 accurately ripped (confidence 1) [EA7FFCA1]
Track 9 accurately ripped (confidence 2) [FC13B1CC]
Track 10 accurately ripped (confidence 2) [2EE001C7]
Track 11 accurately ripped (confidence 2) [39F1EE07]
Track 12 accurately ripped (confidence 1) [FF6D352F]
All tracks accurately ripped
End of status report
 
Содержание индексной карты (.CUE)
REM GENRE "Easy Listening"
REM DATE 1973
REM DISCID B208AC0C
REM COMMENT "ExactAudioCopy v0.99pb5"
CATALOG 0042284371223
PERFORMER "Bert Kaempfert"
TITLE "To The Good Life"
FILE "Bert Kaempfert - To The Good Life.flac" WAVE
TRACK 01 AUDIO
TITLE "Take The ''A'' Train"
PERFORMER "Bert Kaempfert"
INDEX 00 00:00:00
INDEX 01 00:00:33
TRACK 02 AUDIO
TITLE "The Sunny Side Of Life"
PERFORMER "Bert Kaempfert"
INDEX 00 03:12:58
INDEX 01 03:15:08
TRACK 03 AUDIO
TITLE "My Melancholy Baby"
PERFORMER "Bert Kaempfert"
INDEX 00 06:28:08
INDEX 01 06:31:33
TRACK 04 AUDIO
TITLE "Time To Dream"
PERFORMER "Bert Kaempfert"
INDEX 00 09:25:38
INDEX 01 09:26:70
TRACK 05 AUDIO
TITLE "What Is This Thing Called Love?"
PERFORMER "Bert Kaempfert"
INDEX 00 12:13:58
INDEX 01 12:16:08
TRACK 06 AUDIO
TITLE "Lover's Wonderland"
PERFORMER "Bert Kaempfert"
INDEX 00 14:55:08
INDEX 01 14:57:45
TRACK 07 AUDIO
TITLE "Wheeling Free"
PERFORMER "Bert Kaempfert"
INDEX 00 18:35:08
INDEX 01 18:39:08
TRACK 08 AUDIO
TITLE "The Good Life"
PERFORMER "Bert Kaempfert"
INDEX 00 22:00:33
INDEX 01 22:03:70
TRACK 09 AUDIO
TITLE "Bert's Bossa No. 2"
PERFORMER "Bert Kaempfert"
INDEX 00 24:22:58
INDEX 01 24:24:08
TRACK 10 AUDIO
TITLE "Skyliner"
PERFORMER "Bert Kaempfert"
INDEX 00 27:36:08
INDEX 01 27:37:70
TRACK 11 AUDIO
TITLE "Manhattan Merengue"
PERFORMER "Bert Kaempfert"
INDEX 00 30:50:08
INDEX 01 30:52:33
TRACK 12 AUDIO
TITLE "Honeysuckle Rose"
PERFORMER "Bert Kaempfert"
INDEX 00 33:42:08
INDEX 01 33:43:08
 
AccurateRip
[CUETools log; Date: 16.10.2013 14:42:11; Version: 2.0.9]
Pregap length 00:00:33.
[CTDB TOCID: TCb6B6oSHqqzhYV6oNBHFzUgthg-] disk not present in database.
[AccurateRip ID: 001088f7-009a08fd-b208ac0c] found.
Track [ CRC ] Status
01 [0c3d4973] (3/7) Accurately ripped
02 [7a604853] (3/7) Accurately ripped
03 [b0b4828d] (4/8) Accurately ripped
04 [f7320d74] (4/8) Accurately ripped
05 [4330af7e] (3/7) Accurately ripped
06 [5d2c2d78] (4/8) Accurately ripped
07 [aa5b6255] (4/8) Accurately ripped
08 [ea7ffca1] (3/7) Accurately ripped
09 [fc13b1cc] (4/8) Accurately ripped
10 [2ee001c7] (4/8) Accurately ripped
11 [39f1ee07] (4/8) Accurately ripped
12 [ff6d352f] (3/7) Accurately ripped
Track Peak [ CRC32 ] [W/O NULL] [ LOG ]
-- 88,7 [41D67408] [7BD13DDC] CRC32
01 77,9 [7B1B7961] [2F308EB5]
02 81,8 [348F9E5B] [65F6A11F]
03 66,5 [7C92D577] [9F30C47D]
04 77,9 [8CA1C2C6] [53A1FD3B]
05 66,7 [6E6150B3] [A0AFB20F]
06 65,3 [BECE2960] [DA04219F]
07 78,9 [9E1BF5BC] [A61FBD6B]
08 69,2 [DD69A16D] [6C06FFEE]
09 88,7 [160460D9] [141DBA14]
10 87,5 [DBBC0021] [029A5BCA]
11 69,3 [2E5EBB74] [0C48B4A9]
12 73,1 [DEC958DF] [A5A4F55D]
Приватный:
Нет (DHT включён)
Размер:
384.96 Мб (403,658,148 байт) » файлов: 19
Участники:
0 раздают, 0 качают (0 участников всего)
Внешние участники:
2 раздают, 1 качают (3 участников всего) [ Обновить ]
No seeders - write personal message to M0p94ok. Нет сидеров - пишите в личку M0p94ok.
06:18
174
Нет комментариев. Ваш будет первым!