Поиск

(Hard Bop, Post-Bop) John Klemmer - Nexus One (For Trane) - 1979 (1987), FLAC (tracks+.cue), lossless

Треклист:
John Klemmer - Nexus One (For Trane)
Жанр: Hard Bop, Post-Bop
Год издания: 1987
Издатель (лейбл): Bluebird
Номер по каталогу: ND 86577
Аудиокодек: FLAC (*.flac)
Тип рипа: tracks+.cue
Битрейт аудио: lossless
Продолжительность: 56:44
Источник (релизер): escoffier (what)
Наличие сканов в содержимом раздачи: нет
Треклист:
01. Mr. P.C. (Coltrane) - 6:37
02. My One and Only Love (Wood-Mellin) - 6:29
03. Softly as in a Morning Sunrise (Romberg-Hammerstein) - 15:21
04. Impressions (Coltrane) - 8:52
05. Nexus (Klemmer-Burnett) - 19:25
Состав:
John Klemmer - tenor saxophone
Bob Magnusson - bass (#1,2)
Carl Burnett - drums
Recorded at Mama Jo's, North Hollywood, CA in 1979.
 
Лог создания рипа
X Lossless Decoder version 20121222 (142.2)
XLD extraction logfile from 2013-01-08 10:06:46 -0500
John Klemmer / Nexus One (For Trane)
Used drive : HL-DT-ST DVDRW GX40N (revision RQ00)
Media type : Pressed CD
Ripper mode : XLD Secure Ripper
Disable audio cache : OK for the drive with a cache less than 1375KiB
Make use of C2 pointers : NO
Read offset correction : 6
Max retry count : 20
Gap status : Analyzed, Appended (except HTOA)
TOC of the extracted CD
Track | Start | Length | Start sector | End sector
---------------------------------------------------------
1 | 00:00:00 | 06:37:13 | 0 | 29787
2 | 06:37:13 | 06:29:37 | 29788 | 58999
3 | 13:06:50 | 15:21:00 | 59000 | 128074
4 | 28:27:50 | 08:51:50 | 128075 | 167949
5 | 37:19:25 | 19:24:50 | 167950 | 255299
AccurateRip Summary (DiscID: 0009c471-002f9d2b-480d4c05)
Track 01 : OK (v1, confidence 2/2)
Track 02 : Not Found
Track 03 : Not Found
Track 04 : OK (v1, confidence 2/2)
Track 05 : OK (v1, confidence 2/2)
->3 tracks accurately ripped, 2 tracks not found
All Tracks
Album gain : -1.66 dB
Peak : 0.921906
Statistics
Read error : 0
Jitter error (maybe fixed) : 0
Retry sector count : 0
Damaged sector count : 0
Track 01
Filename : /Users/gbdlgk/Downloads/torrents-to-seed/John Klemmer - Nexus One (For Trane) (1979) [FLAC]/01 Mr. P.C..flac
Pre-gap length : 00:02:00
Track gain : -1.57 dB
Peak : 0.766968
CRC32 hash (test run) : 6AF6C274
CRC32 hash : 6AF6C274
CRC32 hash (skip zero) : F24C7C3B
AccurateRip v1 signature : CF25FE44
AccurateRip v2 signature : 9FF2C5E9
->Accurately ripped (v1, confidence 2/2)
Statistics
Read error : 0
Jitter error (maybe fixed) : 0
Retry sector count : 0
Damaged sector count : 0
Track 02
Filename : /Users/gbdlgk/Downloads/torrents-to-seed/John Klemmer - Nexus One (For Trane) (1979) [FLAC]/02 My One And Only Love.flac
Pre-gap length : 00:01:13
Track gain : 3.12 dB
Peak : 0.760834
CRC32 hash (test run) : 5460F165
CRC32 hash : 5460F165
CRC32 hash (skip zero) : E2058FE7
AccurateRip v1 signature : 1F5196AA
AccurateRip v2 signature : 1F390B8C
->Track not present in AccurateRip database.
Statistics
Read error : 0
Jitter error (maybe fixed) : 0
Retry sector count : 0
Damaged sector count : 0
Track 03
Filename : /Users/gbdlgk/Downloads/torrents-to-seed/John Klemmer - Nexus One (For Trane) (1979) [FLAC]/03 Softly As In A Morning Sunrise.flac
Pre-gap length : 00:00:62
Track gain : -0.56 dB
Peak : 0.921906
CRC32 hash (test run) : 5785602F
CRC32 hash : 5785602F
CRC32 hash (skip zero) : CD1537D8
AccurateRip v1 signature : B05B1ED5
AccurateRip v2 signature : 21D9FD53
->Track not present in AccurateRip database.
Statistics
Read error : 0
Jitter error (maybe fixed) : 0
Retry sector count : 0
Damaged sector count : 0
Track 04
Filename : /Users/gbdlgk/Downloads/torrents-to-seed/John Klemmer - Nexus One (For Trane) (1979) [FLAC]/04 Impressions.flac
Pre-gap length : 00:01:12
Track gain : -3.01 dB
Peak : 0.870850
CRC32 hash (test run) : B238A676
CRC32 hash : B238A676
CRC32 hash (skip zero) : C58EEF46
AccurateRip v1 signature : 1BA2141F
AccurateRip v2 signature : 73344DFF
->Accurately ripped (v1, confidence 2/2)
Statistics
Read error : 0
Jitter error (maybe fixed) : 0
Retry sector count : 0
Damaged sector count : 0
Track 05
Filename : /Users/gbdlgk/Downloads/torrents-to-seed/John Klemmer - Nexus One (For Trane) (1979) [FLAC]/05 Nexus.flac
Pre-gap length : 00:01:37
Track gain : -1.72 dB
Peak : 0.917908
CRC32 hash (test run) : 03A81DDE
CRC32 hash : 03A81DDE
CRC32 hash (skip zero) : EA64CBED
AccurateRip v1 signature : DAA54646
AccurateRip v2 signature : 228F02EA
->Accurately ripped (v1, confidence 2/2)
Statistics
Read error : 0
Jitter error (maybe fixed) : 0
Retry sector count : 0
Damaged sector count : 0
No errors occurred
End of status report
 
Содержание индексной карты (.CUE)
TITLE "Nexus One (For Trane)"
PERFORMER "John Klemmer"
REM GENRE "Jazz"
REM DATE "1979"
REM DISCID 480D4C05
REM REPLAYGAIN_ALBUM_GAIN -1.66 dB
REM REPLAYGAIN_ALBUM_PEAK 0.921906
FILE "01 - Mr. P.C..flac" WAVE
TRACK 01 AUDIO
TITLE "Mr. P.C."
REM REPLAYGAIN_TRACK_GAIN -1.57 dB
REM REPLAYGAIN_TRACK_PEAK 0.766968
INDEX 01 00:00:00
TRACK 02 AUDIO
TITLE "My One and Only Love"
REM REPLAYGAIN_TRACK_GAIN 3.12 dB
REM REPLAYGAIN_TRACK_PEAK 0.760834
INDEX 00 06:36:00
FILE "02 - My One and Only Love.flac" WAVE
INDEX 01 00:00:00
TRACK 03 AUDIO
TITLE "Softly as in a Morning Sunrise"
REM REPLAYGAIN_TRACK_GAIN -0.56 dB
REM REPLAYGAIN_TRACK_PEAK 0.921906
INDEX 00 06:28:50
FILE "03 - Softly as in a Morning Sunrise.flac" WAVE
INDEX 01 00:00:00
TRACK 04 AUDIO
TITLE "Impressions"
REM REPLAYGAIN_TRACK_GAIN -3.01 dB
REM REPLAYGAIN_TRACK_PEAK 0.870850
INDEX 00 15:19:63
FILE "04 - Impressions.flac" WAVE
INDEX 01 00:00:00
TRACK 05 AUDIO
TITLE "Nexus"
REM REPLAYGAIN_TRACK_GAIN -1.72 dB
REM REPLAYGAIN_TRACK_PEAK 0.917908
INDEX 00 08:50:13
FILE "05 - Nexus.flac" WAVE
INDEX 01 00:00:00
 
Отчет CUETools
[CUETools log; Date: 18.10.2013 1:31:56; Version: 2.1.4]
[CTDB TOCID: 1m6XoaCN_Ij_UFOnfxPdddfaEvE-] disk not present in database.
[AccurateRip ID: 0009c471-002f9d2b-480d4c05] found.
Track [ CRC | V2 ] Status
01 [cf25fe44|9ff2c5e9] (2+0/2) Accurately ripped
02 [1f5196aa|1f390b8c] (1+0/2) Accurately ripped
03 [b05b1ed5|21d9fd53] (1+0/2) Accurately ripped
04 [1ba2141f|73344dff] (2+0/2) Accurately ripped
05 [daa54646|228f02ea] (2+0/2) Accurately ripped
Track Peak [ CRC32 ] [W/O NULL]
-- 92,1 [E065B41B] [3C68BA55]
01 76,6 [6AF6C274] [F24C7C3B]
02 76,0 [5460F165] [E2058FE7]
03 92,1 [5785602F] [CD1537D8]
04 87,0 [B238A676] [C58EEF46]
05 91,7 [03A81DDE] [EA64CBED]
 
Review by Scott Yanow
This CD reissues five of the nine selections from what was arguably tenor-saxophonist John Klemmer's greatest recording session. In addition to forceful versions of "Mr. P.C." and "My One and Only Love" that feature the artist joined by bassist Bob Magnusson and drummer Carl Burnett, there are three lengthy explorations (of "Softly as in a Morning Sunrise," "Impressions," and his original "Nexus") that are taken as tenor-drum duets. The music is so powerful that listeners should search for the original double LP which includes three additional trios and a duet on "Four." Klemmer, who was becoming very popular as a melodic pop saxophonist, must have surprised many of his fans with this very explorative document.
05:20
688
Нет комментариев. Ваш будет первым!