Поиск

(Crossover Jazz) Dave Grusin / Migration - 1989, FLAC (tracks+.cue), lossless

(Crossover Jazz) Dave Grusin / Migration - 1989, FLAC (tracks+.cue), lossless
Треклист:
Dave Grusin / Migration
Жанр: Crossover Jazz
Год выпуска диска: 1989
Производитель диска: USA (GRP Records)
Аудио кодек: FLAC
Тип рипа: tracks+.cue
Битрейт аудио: lossless
Продолжительность: 1:02:27
1. Punta del Soul / Grusin / 05:31
2. Southwest Passage / Grusin / 05:49
3. First-Time Love / Grusin, Mason / 04:05
4. Western Women / Grusin / 04:39
5. Dancing in the Township / Grusin / 06:06
6. Old Bones / Grusin / 06:13
7. In the Middle of the Night / Grusin / 05:52
8. T.K.O. / Miller / 05:48
9. Polina / Masekela / 06:55
10. Suite from the Milagro Beanfield War: Lupita / Grusin / 01:08
11. Suite from the Milagro Beanfield War: Coyote Angel / Grusin / 03:29
12. Suite from the Milagro Beanfield War: Pistolero / Grusin / 01:47
13. Suite from the Milagro Beanfield War: Milagro / Grusin / 02:35
14. Suite from the Milagro Beanfield War: Fiesta / Grusin / 02:24
Principally recorded at Sunset Sound, Los Angeles, California; Record Plant Stage M, Hollywood, California; Clinton Recording Studios, New York, New York.
Personnel includes: Dave Grusin (keyboards); Branford Marsalis (soprano saxophone); Hugh Masekela (flugelhorn); Carlos Rios (guitar); Marcus Miller, Abraham Laboriel (bass); Omar Hakim, Harvey Mason (drums); Mike Fisher (percussion); Don Grusin (programming).
Сканы внутри
 
EAC log
Exact Audio Copy V0.99 prebeta 3 from 28. July 2007
EAC extraction logfile from 20. May 2008, 14:43
Dave Grusin / Migration
Used drive : HP DVD Writer 640v Adapter: 2 ID: 0
Read mode : Secure
Utilize accurate stream : Yes
Defeat audio cache : Yes
Make use of C2 pointers : No
Read offset correction : 618
Overread into Lead-In and Lead-Out : No
Fill up missing offset samples with silence : Yes
Delete leading and trailing silent blocks : No
Null samples used in CRC calculations : Yes
Used interface : Installed external ASPI interface
Gap handling : Appended to previous track
Used output format : User Defined Encoder
Selected bitrate : 768 kBit/s
Quality : High
Add ID3 tag : No
Command line compressor : C:\Program Files\FLAC\flac.exe
Additional command line options : -8 -A tukey(0.25) -A gauss(0.1875) -b 4096 -V -T "artist=%a" -T "title=%t" -T "album=%g" -T "date=%y" -T "tracknumber=%n" -T "genre=%m" %s --sector-align
TOC of the extracted CD
Track | Start | Length | Start sector | End sector
---------------------------------------------------------
1 | 0:00.00 | 5:31.37 | 0 | 24861
2 | 5:31.37 | 5:49.53 | 24862 | 51089
3 | 11:21.15 | 4:05.00 | 51090 | 69464
4 | 15:26.15 | 4:39.47 | 69465 | 90436
5 | 20:05.62 | 6:06.45 | 90437 | 117931
6 | 26:12.32 | 6:13.48 | 117932 | 145954
7 | 32:26.05 | 5:52.07 | 145955 | 172361
8 | 38:18.12 | 5:48.33 | 172362 | 198494
9 | 44:06.45 | 6:55.65 | 198495 | 229684
10 | 51:02.35 | 1:08.35 | 229685 | 234819
11 | 52:10.70 | 3:29.17 | 234820 | 250511
12 | 55:40.12 | 1:47.25 | 250512 | 258561
13 | 57:27.37 | 2:35.43 | 258562 | 270229
14 | 60:03.05 | 2:24.30 | 270230 | 281059
Track 1
Filename C:\Download\TorrentsDownloads\(Converted-Files)\01 Punta Del Soul - Dave Grusin.wav
Pre-gap length 0:00:02.00
Peak level 97.0 %
Track quality 100.0 %
Test CRC 6DB2E273
Copy CRC 6DB2E273
Copy OK
Track 2
Filename C:\Download\TorrentsDownloads\(Converted-Files)\02 Southwest Passage - Dave Grusin.wav
Peak level 100.0 %
Track quality 100.0 %
Test CRC CD9C87F5
Copy CRC CD9C87F5
Copy OK
Track 3
Filename C:\Download\TorrentsDownloads\(Converted-Files)\03 First-time Love - Dave Grusin.wav
Peak level 94.9 %
Track quality 100.0 %
Test CRC 194BD40C
Copy CRC 194BD40C
Copy OK
Track 4
Filename C:\Download\TorrentsDownloads\(Converted-Files)\04 Western Women - Dave Grusin.wav
Peak level 97.7 %
Track quality 100.0 %
Test CRC 3C559BA0
Copy CRC 3C559BA0
Copy OK
Track 5
Filename C:\Download\TorrentsDownloads\(Converted-Files)\05 Dancing in the Township - Dave Grusin.wav
Pre-gap length 0:00:00.66
Peak level 100.0 %
Track quality 99.9 %
Test CRC 541AF2FC
Copy CRC 541AF2FC
Copy OK
Track 6
Filename C:\Download\TorrentsDownloads\(Converted-Files)\06 Old Bones - Dave Grusin.wav
Peak level 97.9 %
Track quality 100.0 %
Test CRC 63CB06CE
Copy CRC 63CB06CE
Copy OK
Track 7
Filename C:\Download\TorrentsDownloads\(Converted-Files)\07 In the Middle of the Night - Dave Grusin.wav
Peak level 96.0 %
Track quality 100.0 %
Test CRC 7B39C48B
Copy CRC 7B39C48B
Copy OK
Track 8
Filename C:\Download\TorrentsDownloads\(Converted-Files)\08 T. K. O. - Dave Grusin.wav
Peak level 99.7 %
Track quality 100.0 %
Test CRC C18B246B
Copy CRC C18B246B
Copy OK
Track 9
Filename C:\Download\TorrentsDownloads\(Converted-Files)\09 Polina - Dave Grusin.wav
Pre-gap length 0:00:00.97
Peak level 99.1 %
Track quality 100.0 %
Test CRC AB338B54
Copy CRC AB338B54
Copy OK
Track 10
Filename C:\Download\TorrentsDownloads\(Converted-Files)\10 Lupita - Dave Grusin.wav
Pre-gap length 0:00:01.77
Peak level 70.7 %
Track quality 100.0 %
Test CRC E927A273
Copy CRC E927A273
Copy OK
Track 11
Filename C:\Download\TorrentsDownloads\(Converted-Files)\11 Coyote Angel - Dave Grusin.wav
Peak level 94.3 %
Track quality 100.0 %
Test CRC 5AD90928
Copy CRC 5AD90928
Copy OK
Track 12
Filename C:\Download\TorrentsDownloads\(Converted-Files)\12 Pistolero - Dave Grusin.wav
Peak level 95.3 %
Track quality 100.0 %
Test CRC 7EFD8EAC
Copy CRC 7EFD8EAC
Copy OK
Track 13
Filename C:\Download\TorrentsDownloads\(Converted-Files)\13 Milagro - Dave Grusin.wav
Peak level 75.1 %
Track quality 100.0 %
Test CRC B1F550A7
Copy CRC B1F550A7
Copy OK
Track 14
Filename C:\Download\TorrentsDownloads\(Converted-Files)\14 Fiesta - Dave Grusin.wav
Peak level 95.0 %
Track quality 100.0 %
Test CRC E04F508C
Copy CRC E04F508C
Copy OK
No errors occurred
End of status report
 
CUE
REM GENRE "Jazz - Crossover"
REM DATE 1989
REM DISCID BD0EA30E
REM COMMENT "ExactAudioCopy v0.99pb3"
PERFORMER "Dave Grusin"
TITLE "Migration"
FILE "01 Punta Del Soul - Dave Grusin.wav" WAVE
TRACK 01 AUDIO
TITLE "Punta Del Soul"
PERFORMER "Dave Grusin"
INDEX 01 00:00:00
FILE "02 Southwest Passage - Dave Grusin.wav" WAVE
TRACK 02 AUDIO
TITLE "Southwest Passage"
PERFORMER "Dave Grusin"
INDEX 01 00:00:00
FILE "03 First-time Love - Dave Grusin.wav" WAVE
TRACK 03 AUDIO
TITLE "First-time Love"
PERFORMER "Dave Grusin"
INDEX 01 00:00:00
FILE "04 Western Women - Dave Grusin.wav" WAVE
TRACK 04 AUDIO
TITLE "Western Women"
PERFORMER "Dave Grusin"
INDEX 01 00:00:00
TRACK 05 AUDIO
TITLE "Dancing in the Township"
PERFORMER "Dave Grusin"
INDEX 00 04:38:72
FILE "05 Dancing in the Township - Dave Grusin.wav" WAVE
INDEX 01 00:00:00
FILE "06 Old Bones - Dave Grusin.wav" WAVE
TRACK 06 AUDIO
TITLE "Old Bones"
PERFORMER "Dave Grusin"
INDEX 01 00:00:00
FILE "07 In the Middle of the Night - Dave Grusin.wav" WAVE
TRACK 07 AUDIO
TITLE "In the Middle of the Night"
PERFORMER "Dave Grusin"
INDEX 01 00:00:00
FILE "08 T. K. O. - Dave Grusin.wav" WAVE
TRACK 08 AUDIO
TITLE "T. K. O."
PERFORMER "Dave Grusin"
INDEX 01 00:00:00
TRACK 09 AUDIO
TITLE "Polina"
PERFORMER "Dave Grusin"
INDEX 00 05:47:35
FILE "09 Polina - Dave Grusin.wav" WAVE
INDEX 01 00:00:00
TRACK 10 AUDIO
TITLE "Lupita"
PERFORMER "Dave Grusin"
INDEX 00 06:54:07
FILE "10 Lupita - Dave Grusin.wav" WAVE
INDEX 01 00:00:00
FILE "11 Coyote Angel - Dave Grusin.wav" WAVE
TRACK 11 AUDIO
TITLE "Coyote Angel"
PERFORMER "Dave Grusin"
INDEX 01 00:00:00
FILE "12 Pistolero - Dave Grusin.wav" WAVE
TRACK 12 AUDIO
TITLE "Pistolero"
PERFORMER "Dave Grusin"
INDEX 01 00:00:00
FILE "13 Milagro - Dave Grusin.wav" WAVE
TRACK 13 AUDIO
TITLE "Milagro"
PERFORMER "Dave Grusin"
INDEX 01 00:00:00
FILE "14 Fiesta - Dave Grusin.wav" WAVE
TRACK 14 AUDIO
TITLE "Fiesta"
PERFORMER "Dave Grusin"
INDEX 01 00:00:00
Приватный:
Нет (DHT включён)
Размер:
368.04 Мб (385,923,134 байт) » файлов: 19
Участники:
0 раздают, 0 качают (0 участников всего)
Внешние участники:
14 раздают, 4 качают (18 участников всего) [ Обновить ]
13:15
13
Нет комментариев. Ваш будет первым!