Поиск

(Crossover Jazz) Dave Grusin - Dave Grusin Presents: West Side Story - 1997, APE (image+.cue), lossless

(Crossover Jazz) Dave Grusin - Dave Grusin Presents: West Side Story - 1997, APE (image+.cue), lossless
Треклист:
Dave Grusin - Dave Grusin Presents: West Side Story
Жанр: Crossover Jazz
Год выпуска диска: 1997
Производитель диска: USA (N2K)
Аудио кодек: APE
Тип рипа: image+.cue
Битрейт аудио: lossless
Продолжительность: 0:54:30
01. Prologue (feat. Arturo Sandoval, Bill Evans, and Dave Weckl) 05:03
02. Something's Coming (feat. Michael Brecker) 05:36
03. The Jet Song (feat. Ronnie Cuber and George Young) 07:46
04. Maria (feat. Jonathan Butler) 04:27
05. Cool (feat. Lee Ritenour and John Patitucci) 04:48
06. Tonight (feat. Gloria Estefan, Michael Brecker, and Lee Ritenour)) 04:08
07. I Feel Pretty (feat. Dave Valentin) 05:16
08. One Hand, One Heart 04:33
09. Somewhere (feat. Jon Secada) 04:27
10. America (feat. Bill Evans and Arturo Sandoval) 08:20
"America" was nominated for a 1998 Grammy Award for Best Instrumental Arrangement.
Guests-Michael Brecker,Bill Evans,Jonathan Butler &More
Includes liner notes by Dave Grusin and Edward Gomez.
Personnel includes: Dave Grusin (piano); Jon Secada, Gloria Estefan, Jonathan Butler (vocals); Bill Evans (soprano & tenor saxophones); Jerry Dodgion (alto saxophone, flute, clarinet); Jerome Richardson (tenor saxophone, flute, alto flute, clarinet); Michael Brecker (tenor saxophone); Ronnie Cuber (baritone saxophone, clarinet, bass clarinet); Arturo Sandoval, Greg Gisbert (trumpet, flugelhorn); Byron Stripling (trumpet); Keith O'Quinn, Jim Pugh (tenor trombone); Dave Taylor (bass trombone); George Young (flute, piccolo); Jeff Clayton (flute, clarinet, oboe); Dave Valentin (flute); Lee Ritenour (guitar); John Patitucci (acoustic bass); Dave Weckl (drums); Sammy Figueroa (percussion).
 
LOG
Exact Audio Copy V0.99 prebeta 4 from 23. January 2008
EAC extraction logfile from 8. August 2008, 14:37
Dave Grusin / Dave Grusin Presents: West Side Story
Used drive : TSSTcorpCDDVDW SE-S204N Adapter: 1 ID: 0
Read mode : Secure
Utilize accurate stream : Yes
Defeat audio cache : Yes
Make use of C2 pointers : No
Read offset correction : 6
Overread into Lead-In and Lead-Out : No
Fill up missing offset samples with silence : Yes
Delete leading and trailing silent blocks : No
Null samples used in CRC calculations : Yes
Used interface : Installed external ASPI interface
Used output format : User Defined Encoder
Selected bitrate : 128 kBit/s
Quality : High
Add ID3 tag : No
Command line compressor : C:\Program Files\FLAC\flac.exe
Additional command line options : -8 -V -T "ARTIST=%a" -T "TITLE=%t" -T "ALBUM=%g" -T "DATE=%y" -T "TRACKNUMBER=%n" -T "GENRE=%m" -T "COMMENT=EAC FLAC -8" %s
TOC of the extracted CD
Track | Start | Length | Start sector | End sector
---------------------------------------------------------
1 | 0:00.00 | 5:01.50 | 0 | 22624
2 | 5:01.50 | 5:34.27 | 22625 | 47701
3 | 10:36.02 | 7:43.68 | 47702 | 82494
4 | 18:19.70 | 4:25.50 | 82495 | 102419
5 | 22:45.45 | 4:47.07 | 102420 | 123951
6 | 27:32.52 | 4:06.33 | 123952 | 142434
7 | 31:39.10 | 5:15.10 | 142435 | 166069
8 | 36:54.20 | 4:31.52 | 166070 | 186446
9 | 41:25.72 | 4:25.60 | 186447 | 206381
10 | 45:51.57 | 8:19.58 | 206382 | 243864
Range status and errors
Selected range
Filename J:\TTT\Dave Grusin - West Side Story[rutracker.org]\Dave Grusin - Dave Grusin Presents West Side Story.wav
Peak level 99.8 %
Range quality 99.9 %
Test CRC 5C9CE1AB
Copy CRC 5C9CE1AB
Copy finished
No errors occured
AccurateRip summary
Track 1 accurately ripped (confidence 8) [C197D856]
Track 2 accurately ripped (confidence 8) [A98F7036]
Track 3 accurately ripped (confidence 8) [E80B60D6]
Track 4 accurately ripped (confidence 8) [9F1514D6]
Track 5 accurately ripped (confidence 8) [4F0F68E4]
Track 6 accurately ripped (confidence 8) [F6F0F798]
Track 7 accurately ripped (confidence 8) [43939454]
Track 8 accurately ripped (confidence 8) [5719ED1B]
Track 9 accurately ripped (confidence 8) [4E524BAB]
Track 10 accurately ripped (confidence 8) [55EEB640]
All tracks accurately ripped
End of status report
Приватный:
Нет (DHT включён)
Размер:
354.37 Мб (371,582,877 байт) » файлов: 5
Участники:
0 раздают, 0 качают (0 участников всего)
Внешние участники:
--- [ Обновить ]
13:15
10
Нет комментариев. Ваш будет первым!