Поиск

(Smooth Jazz) Eric Darius - Night On The Town - 2004, APE (image+.cue), lossless

Треклист:
Eric Darius - Night On The Town
Жанр: Smooth Jazz
Год выпуска диска: 2004
Производитель диска: USA
Аудио кодек: APE
Тип рипа: image+.cue
Битрейт аудио: lossless
Продолжительность: 47:41
Трэклист:
1. Joy Ride
2. Heads Up
3. Night On The Town
4. Let It Flow
5. Love T.K.O
6. In The Pocket
7. Let's Stay Together
8. Cruisin'
9. You're So Fine (Instrumental)
10. You're So Fine (Vocal Version)
 
Files
1.jpg
2.jpg
3.jpg
4.jpg
5.jpg
6.jpg
Disc.jpg
Eric Darius - Night On The Town(ape).cue
Eric Darius - Night On The Town.ape
Eric Darius - Night On The Town.cue
Eric Darius - Night On The Town.log
Eric Darius - Night On The Town.torrent
tau.jpg
 
EAC Log
Exact Audio Copy V0.99 prebeta 4 from 23. January 2008
Отчёт EAC об извлечении, выполненном 28. июня 2008, 14:20
Eric Darius / Night On The Town
Дисковод: _NEC DVD_RW ND-3550A Adapter: 1 ID: 0
Режим чтения : Достоверность
Использование точного потока : Да
Отключение кэша аудио : Да
Использование указателей C2 : Нет
Коррекция смещения при чтении : 48
Способность читать области Lead-in и Lead-out : Нет
Заполнение пропущенных сэмплов тишиной : Да
Удаление блоков с тишиной в начале и конце : Нет
При вычислениях CRC использовались нулевые сэмплы : Нет
Интерфейс : Встроенный Win32-интерфейс для Win NT/2000
Выходной формат : Внутренние WAV-операции
Формат сэмплов : 44.100 Гц; 16 бит; стерео
TOC извлечённого CD
Трек | Старт | Длительность | Начальный сектор | Конечный сектор
---------------------------------------------------------------------
1 | 0:00.00 | 4:40.15 | 0 | 21014
2 | 4:40.15 | 4:15.51 | 21015 | 40190
3 | 8:55.66 | 4:30.09 | 40191 | 60449
4 | 13:26.00 | 4:49.18 | 60450 | 82142
5 | 18:15.18 | 4:52.24 | 82143 | 104066
6 | 23:07.42 | 5:18.45 | 104067 | 127961
7 | 28:26.12 | 5:52.49 | 127962 | 154410
8 | 34:18.61 | 4:20.28 | 154411 | 173938
9 | 38:39.14 | 4:53.39 | 173939 | 195952
10 | 43:32.53 | 4:08.53 | 195953 | 214605
Характеристики диапазона извлечения и сообщения об ошибках
Выбранный диапазон
Имя файла F:\Torrents\Eric Darius\Eric Darius - Night On The Town.wav
Пиковый уровень 97.7 %
Качество диапазона 99.9 %
CRC копии 3919F5FD
Копирование... OK
Ошибок не произошло
AccurateRip: сводка
Трек 1 нет в базе данных
Трек 2 нет в базе данных
Трек 3 нет в базе данных
Трек 4 нет в базе данных
Трек 5 нет в базе данных
Трек 6 нет в базе данных
Трек 7 нет в базе данных
Трек 8 нет в базе данных
Трек 9 нет в базе данных
Трек 10 нет в базе данных
Ни одного трека нет в базе AccurateRip
Конец отчёта
 
tau
Приватный:
Нет (DHT включён)
Размер:
316.93 Мб (332,326,391 байт) » файлов: 12
Участники:
0 раздают, 0 качают (0 участников всего)
Внешние участники:
--- [ Обновить ]
13:14
12
Нет комментариев. Ваш будет первым!