Поиск

(Cool, Latin Jazz, Post-Bop, Afro-Cuban Jazz) Stan Getz With Cal Tjader Sextet - Ginza Samba - 1963, FLAC (tracks+.cue), lossless

Треклист:
Stan Getz With Cal Tjader Sextet - Ginza Samba {Russian Print}
Жанр: Cool, Latin Jazz, Post-Bop, Afro-Cuban Jazz
Дата записи: at Circle Record Studios, San Francisco, California on February 8, 1958
Дата выпуска: 1963
Производитель диска, страна: Russia
Аудио кодек: FLAC
Тип рипа: (tracks + .cue)
Битрейт аудио: lossless
Включает: Full artwork
Продолжительность: 42:48
Источник: коллекция Л.Рендера
Риппер: Мой рип
Трэклист:
1. GINZA SAMBA 10:57 - (Vince Guaraldi)
2. I'VE GROWN ACCUSTOMED TO HER FACE 3:59 (Lerner - Lowe)
3. FOR ALL WE KNOW - 5:45 (Coots - Lewis)
4. CROW'S NEST - 8:48 (Cal Tjader)
5. LIZ-ANNE - 3;47 (Cal Tjader)
6. BIG BEAR - 4:33 (Cal Tjader)
7. MY BUDDY - 5.14 (Kahn - Donaldson)
Состав:
STAN GETZ - tenor saxophone
CAL TJADER - vibes
VINCE GUARALDI - piano
EDDIE DURAN - guttar
SCOTT LaFARO - bass
BILLY HIGGINS - drums
Издания:
1958 LP Fantasy 3266
1962 LP Fantasy 8005
1963 LP Fantasy 8348
1995 CD Original Jazz Classics 2752
 
Review by Richard S. Ginell
An amazing ad-hoc session, thrown together in a San Francisco studio with now legendary personnel from two different groups. The lineup says it all — a meeting of the Latin jazz maestro and the future champion of Brazilian jazz, plus, from Tjader's group, Vince Guaraldi on piano and guitarist Eddie Duran, and from Getz's band, the then unknown teenager Scott LaFaro on bass and Billy Higgins on drums. A moment for the history books is an 11-minute workout on Guaraldi's pentatonic souvenir of Tokyo, "Ginza Samba," where the fast-samba theme finds Getz blowing to a Brazilian rhythm four years before "Desafinado." The jamming, though, is in a straight-ahead bebop groove where Getz's eloquence unfolds with almost unearthly ease. The rest of the album alternates between lyric ballads and solid, though non-Latin, swinging where Tjader, Guaraldi, and Duran graft onto the great Getz rhythm section like they've been playing together for decades (check out the funky combustion on "Crow's Nest"). Collectors' note: when Getz became a bossa nova star, this album was reissued in 1963 as Stan Getz With Cal Tjader with a different set of liner notes and remains available on LP and cassette in this form.
 
CD scan
 
EAC log
Exact Audio Copy V0.99 prebeta 4 from 23. January 2008
EAC extraction logfile from 20. June 2009, 9:50
Stan Getz With Cal Tjader Sextet / Ginza Samba
Used drive : HL-DT-STDVD-RAM GH22NP20 Adapter: 0 ID: 0
Read mode : Secure
Utilize accurate stream : Yes
Defeat audio cache : Yes
Make use of C2 pointers : No
Read offset correction : 102
Overread into Lead-In and Lead-Out : No
Fill up missing offset samples with silence : Yes
Delete leading and trailing silent blocks : No
Null samples used in CRC calculations : Yes
Used interface : Installed external ASPI interface
Gap handling : Appended to previous track
Used output format : User Defined Encoder
Selected bitrate : 320 kBit/s
Quality : High
Add ID3 tag : Yes
Command line compressor : C:\Program Files\Exact Audio Copy\Flac\flac.exe
Additional command line options : -V -8 -T "artist=%a" -T "title=%t" -T "album=%g" -T "date=%y" -T "tracknumber=%n" -T "genre=%m" %s
TOC of the extracted CD
Track | Start | Length | Start sector | End sector
---------------------------------------------------------
1 | 0:00.00 | 11:00.70 | 0 | 49569
2 | 11:00.70 | 4:00.15 | 49570 | 67584
3 | 15:01.10 | 5:45.17 | 67585 | 93476
4 | 20:46.27 | 8:22.00 | 93477 | 131126
5 | 29:08.27 | 3:49.48 | 131127 | 148349
6 | 32:58.00 | 4:35.65 | 148350 | 169039
7 | 37:33.65 | 5:15.07 | 169040 | 192671
Track 1
Filename D:\music\rip\Stan Getz With Cal Tjader Sextet - Ginza Samba (1963) {Russian Print}\01 - Ginza Samba.wav
Pre-gap length 0:00:02.00
Peak level 88.0 %
Track quality 100.0 %
Test CRC 21F50838
Copy CRC 21F50838
Track not present in AccurateRip database
Copy OK
Track 2
Filename D:\music\rip\Stan Getz With Cal Tjader Sextet - Ginza Samba (1963) {Russian Print}\02 - I've Crown Accustomed To Her Face.wav
Pre-gap length 0:00:03.64
Peak level 57.3 %
Track quality 100.0 %
Test CRC 7D0B03F8
Copy CRC 7D0B03F8
Track not present in AccurateRip database
Copy OK
Track 3
Filename D:\music\rip\Stan Getz With Cal Tjader Sextet - Ginza Samba (1963) {Russian Print}\03 - For All We Know.wav
Pre-gap length 0:00:03.64
Peak level 75.3 %
Track quality 100.0 %
Test CRC AEB986DA
Copy CRC AEB986DA
Track not present in AccurateRip database
Copy OK
Track 4
Filename D:\music\rip\Stan Getz With Cal Tjader Sextet - Ginza Samba (1963) {Russian Print}\04 - Crow's Nest.wav
Pre-gap length 0:00:03.09
Peak level 77.0 %
Track quality 100.0 %
Test CRC 92527F75
Copy CRC 92527F75
Track not present in AccurateRip database
Copy OK
Track 5
Filename D:\music\rip\Stan Getz With Cal Tjader Sextet - Ginza Samba (1963) {Russian Print}\05 - Liz-Anne.wav
Pre-gap length 0:00:04.13
Peak level 65.1 %
Track quality 100.0 %
Test CRC EB93803A
Copy CRC EB93803A
Track not present in AccurateRip database
Copy OK
Track 6
Filename D:\music\rip\Stan Getz With Cal Tjader Sextet - Ginza Samba (1963) {Russian Print}\06 - Big Bear.wav
Pre-gap length 0:00:03.70
Peak level 74.5 %
Track quality 100.0 %
Test CRC BA0B08D8
Copy CRC BA0B08D8
Track not present in AccurateRip database
Copy OK
Track 7
Filename D:\music\rip\Stan Getz With Cal Tjader Sextet - Ginza Samba (1963) {Russian Print}\07 - My Buddy.wav
Pre-gap length 0:00:03.60
Peak level 72.1 %
Track quality 100.0 %
Test CRC FCC84EC7
Copy CRC FCC84EC7
Track not present in AccurateRip database
Copy OK
None of the tracks are present in the AccurateRip database
No errors occurred
End of status report
 
Tau
Я не сидирую все свои раздачи подолгу, только новые (до 3х первых сидов)
Предлагаю скачавшим максимально долго оставаться на раздаче - весь рейтинг будет ваш
Если нет сидов или раздача находится в архиве, пришлите письмо, и я вернусь
Заботьтесь о своем рейтинге - приветствуется конвертация моих раздач в мп3 и выкладывание в соотвтствующем разделе
По всем вопросам пишите личное сообщение пользователю M0p94ok.
06:45
228
Нет комментариев. Ваш будет первым!