Поиск

1969-1974 Mulatu Astatke - Ethiopiques, Vol. 4: Ethio Jazz & Musique Instrumentale (1998) [CD]

1969-1974 Mulatu Astatke - Ethiopiques, Vol. 4: Ethio Jazz & Musique Instrumentale (1998) [CD]
Треклист:
Mulatu Astatke - Ethiopiques, Vol. 4: Ethio Jazz & Musique Instrumentale, 1969-1974
Жанр: Jazz, Soul,Rhythm & Blues, Jazz-Funk
Год выпуска диска: 1998
Производитель диска: France
Аудио кодек: FLAC
Тип рипа: tracks+cue
Продолжительность: 01:05:38
Трэклист:
01 Yekermo Sew (A man of experience and wisdom)
02 Metche Dershe (When am I going to reach there)
03 Kasalefkut Hulu (From all the time I have passed)
04 Tezeta (Nostalgia)
05 Yegelle Tezeta (My own memory)
06 Munaye (My Muna)
07 Gubelye (My Gubel)
08 Asmarina (My Asmara)
09 Yekatit (February)
10 Netsanet (Liberty)
11 Tezetaye antchi Lidj (Baby, my unforgettable remembrance)
12 Sabye (My Saba)
13 Ene Alantchi Alnorem (I can't live without you)
14 Dewel (Bell)
Доп. информация:
Credits: Bass - Giovani Rico* (tracks: 7 to 13) , Haylu "Zihon" Kèbbèdè (tracks: 1 to 6)
Drums - Girma Zèmaryam (tracks: 1 to 6) , Tèmarè Harègu (tracks: 7 to 13) , Tèsfayé "Hodo" Mèkonnen (tracks: 1 to 6)
Flute - Feqadu Amdé-Mesqel (tracks: 7 to 13)
Guitar - Andrew Wilson (tracks: 6 to 13) , Tèklè "Huket" Adhanom (tracks: 1 to 6)
Organ, Electric Piano, Keyboards - Mulatu Astatke
Piano - Girma Bèyènè (tracks: 1 to 6)
Saxophone [Tenor] - Fekade Amde Maskal* , Mogus Habte* (tracks: 7 to 13) , Tesfa-Maryam Kidané* (tracks: 1 to 6)
Strings - Police Orchestra (tracks: 6)
Trumpet - Fèllèqè Kidané (tracks: 5) , Yohannès Tèkolla (tracks: 7 to 13)
Notes: Recorded between 1969 & 1974.
Sleeve writings:
Mulatu Astatke => Mulatu Astatqé
Fekade Amde Maskal => Féqadu Amdè-Mesqel
Moges Habte => Mogus Habte
Giovanni Rico => Giovani Rico
 
Лог ЕАС
Exact Audio Copy V0.99 prebeta 4 from 23. January 2008
EAC extraction logfile from 18. June 2009, 23:33
Mulatu Astatqй / Ethiopiques, Vol 4- Ethio Jazz & Musique Instrumentale 1969-1974
Used drive  : TSSTcorpCDDVDW TS-H653N   Adapter: 2  ID: 2
Read mode               : Secure
Utilize accurate stream : Yes
Defeat audio cache      : Yes
Make use of C2 pointers : No
Read offset correction                      : 6
Overread into Lead-In and Lead-Out          : No
Fill up missing offset samples with silence : Yes
Delete leading and trailing silent blocks   : No
Null samples used in CRC calculations       : Yes
Used interface                              : Native Win32 interface for Win NT & 2000
Gap handling                                : Appended to previous track
Used output format              : User Defined Encoder
Selected bitrate                : 1024 kBit/s
Quality                         : High
Add ID3 tag                     : No
Command line compressor         : C:\Program Files\FLAC -\flac.exe
Additional command line options : -5 -V -T "artist=%a" -T "title=%t" -T "album=%g" -T "date=%y" -T "tracknumber=%n" -T "genre=%m" -T comment="shared by pastafari cubensis" %s
TOC of the extracted CD
     Track |   Start  |  Length  | Start sector | End sector
    ---------------------------------------------------------
        1  |  0:00.30 |  4:15.42 |        30    |    19196
        2  |  4:15.72 |  4:00.14 |     19197    |    37210
        3  |  8:16.11 |  2:45.48 |     37211    |    49633
        4  | 11:01.59 |  6:16.48 |     49634    |    77881
        5  | 17:18.32 |  3:18.09 |     77882    |    92740
        6  | 20:36.41 |  5:03.22 |     92741    |   115487
        7  | 25:39.63 |  4:40.23 |    115488    |   136510
        8  | 30:20.11 |  4:58.43 |    136511    |   158903
        9  | 35:18.54 |  3:57.61 |    158904    |   176739
       10  | 39:16.40 |  5:36.67 |    176740    |   202006
       11  | 44:53.32 |  6:04.29 |    202007    |   229335
       12  | 50:57.61 |  5:28.16 |    229336    |   253951
       13  | 56:26.02 |  5:02.22 |    253952    |   276623
       14  | 61:28.24 |  4:16.11 |    276624    |   295834
Track  1
     Filename C:\CD_buffer\Mulatu Astatqй - Ethiopiques, Vol 4- Ethio Jazz & Musique Instrumentale 1969-1974 [1998] [FLAC]\01- Yekermo Sew (A man of experience and wisdom).wav
     Pre-gap length  0:00:02.40
     Peak level 100.0 %
     Track quality 100.0 %
     Test CRC A7B06980
     Copy CRC A7B06980
     Accurately ripped (confidence 12)  [CBDB69F0]
     Copy OK
Track  2
     Filename C:\CD_buffer\Mulatu Astatqй - Ethiopiques, Vol 4- Ethio Jazz & Musique Instrumentale 1969-1974 [1998] [FLAC]\02- Metche Dershe (When am I going to reach there).wav
     Peak level 100.0 %
     Track quality 100.0 %
     Test CRC 51B5D4A4
     Copy CRC 51B5D4A4
     Accurately ripped (confidence 12)  [ECED283D]
     Copy OK
Track  3
     Filename C:\CD_buffer\Mulatu Astatqй - Ethiopiques, Vol 4- Ethio Jazz & Musique Instrumentale 1969-1974 [1998] [FLAC]\03- Kasalefkut Hulu (From all the time I have passed).wav
     Peak level 95.4 %
     Track quality 100.0 %
     Test CRC 7799CC60
     Copy CRC 7799CC60
     Accurately ripped (confidence 11)  [64749577]
     Copy OK
Track  4
     Filename C:\CD_buffer\Mulatu Astatqй - Ethiopiques, Vol 4- Ethio Jazz & Musique Instrumentale 1969-1974 [1998] [FLAC]\04- Tezeta (Nostalgia).wav
     Peak level 100.0 %
     Track quality 100.0 %
     Test CRC 66FB17ED
     Copy CRC 66FB17ED
     Accurately ripped (confidence 11)  [E9CD447D]
     Copy OK
Track  5
     Filename C:\CD_buffer\Mulatu Astatqй - Ethiopiques, Vol 4- Ethio Jazz & Musique Instrumentale 1969-1974 [1998] [FLAC]\05- Yegelle Tezeta (My own memory).wav
     Peak level 98.5 %
     Track quality 100.0 %
     Test CRC 16E0A1B5
     Copy CRC 16E0A1B5
     Accurately ripped (confidence 11)  [45CDD3A0]
     Copy OK
Track  6
     Filename C:\CD_buffer\Mulatu Astatqй - Ethiopiques, Vol 4- Ethio Jazz & Musique Instrumentale 1969-1974 [1998] [FLAC]\06- Munaye (My Muna).wav
     Peak level 99.0 %
     Track quality 100.0 %
     Test CRC A2E6F086
     Copy CRC A2E6F086
     Accurately ripped (confidence 11)  [21E86EBA]
     Copy OK
Track  7
     Filename C:\CD_buffer\Mulatu Astatqй - Ethiopiques, Vol 4- Ethio Jazz & Musique Instrumentale 1969-1974 [1998] [FLAC]\07- Gubelye (My Gubel).wav
     Peak level 100.0 %
     Track quality 100.0 %
     Test CRC 135820D3
     Copy CRC 135820D3
     Accurately ripped (confidence 11)  [A7535852]
     Copy OK
Track  8
     Filename C:\CD_buffer\Mulatu Astatqй - Ethiopiques, Vol 4- Ethio Jazz & Musique Instrumentale 1969-1974 [1998] [FLAC]\08- Asmarina (My Asmara).wav
     Peak level 100.0 %
     Track quality 100.0 %
     Test CRC C1A263D6
     Copy CRC C1A263D6
     Accurately ripped (confidence 11)  [A0B2421C]
     Copy OK
Track  9
     Filename C:\CD_buffer\Mulatu Astatqй - Ethiopiques, Vol 4- Ethio Jazz & Musique Instrumentale 1969-1974 [1998] [FLAC]\09- Yekatit (February).wav
     Peak level 100.0 %
     Track quality 100.0 %
     Test CRC 35EBBD36
     Copy CRC 35EBBD36
     Accurately ripped (confidence 11)  [20614E63]
     Copy OK
Track 10
     Filename C:\CD_buffer\Mulatu Astatqй - Ethiopiques, Vol 4- Ethio Jazz & Musique Instrumentale 1969-1974 [1998] [FLAC]\10- Netsanet (Liberty).wav
     Peak level 100.0 %
     Track quality 100.0 %
     Test CRC 0933D925
     Copy CRC 0933D925
     Accurately ripped (confidence 11)  [55E21665]
     Copy OK
Track 11
     Filename C:\CD_buffer\Mulatu Astatqй - Ethiopiques, Vol 4- Ethio Jazz & Musique Instrumentale 1969-1974 [1998] [FLAC]\11- Tezetaye antchi Lidj (Baby, my unforgettable remembrance).wav
     Peak level 86.8 %
     Track quality 100.0 %
     Test CRC 389FCE98
     Copy CRC 389FCE98
     Accurately ripped (confidence 11)  [46A4F07F]
     Copy OK
Track 12
     Filename C:\CD_buffer\Mulatu Astatqй - Ethiopiques, Vol 4- Ethio Jazz & Musique Instrumentale 1969-1974 [1998] [FLAC]\12- Sabye (My Saba).wav
     Peak level 92.7 %
     Track quality 100.0 %
     Test CRC 40076992
     Copy CRC 40076992
     Accurately ripped (confidence 10)  [EF24F327]
     Copy OK
Track 13
     Filename C:\CD_buffer\Mulatu Astatqй - Ethiopiques, Vol 4- Ethio Jazz & Musique Instrumentale 1969-1974 [1998] [FLAC]\13- Ene Alantchi Alnorem (I can't live without you).wav
     Peak level 91.3 %
     Track quality 100.0 %
     Test CRC D55325F3
     Copy CRC D55325F3
     Accurately ripped (confidence 12)  [06632607]
     Copy OK
Track 14
     Filename C:\CD_buffer\Mulatu Astatqй - Ethiopiques, Vol 4- Ethio Jazz & Musique Instrumentale 1969-1974 [1998] [FLAC]\14- Dewel (Bell).wav
     Peak level 97.8 %
     Track quality 100.0 %
     Test CRC E97A9A50
     Copy CRC E97A9A50
     Accurately ripped (confidence 12)  [9025E868]
     Copy OK
All tracks accurately ripped
No errors occurred
End of status report
 
 
Содержание индексной карты (.cue)
REM GENRE Jazz
REM DATE 1998
REM DISCID C50F680E
REM COMMENT "ExactAudioCopy v0.99pb4"
PERFORMER "Mulatu Astatqй"
TITLE "Ethiopiques, Vol 4- Ethio Jazz & Musique Instrumentale 1969-1974"
FILE "Mulatu Astatqй - Ethiopiques, Vol 4- Ethio Jazz & Musique Instrumentale 1969-1974 [1998] [FLAC]\01- Yekermo Sew (A man of experience and wisdom).wav" WAVE
  TRACK 01 AUDIO
    TITLE "Yekermo Sew (A man of experience and wisdom)"
    PERFORMER "Mulatu Astatqй"
    FLAGS DCP
    PREGAP 00:00:30
    INDEX 01 00:00:00
FILE "Mulatu Astatqй - Ethiopiques, Vol 4- Ethio Jazz & Musique Instrumentale 1969-1974 [1998] [FLAC]\02- Metche Dershe (When am I going to reach there).wav" WAVE
  TRACK 02 AUDIO
    TITLE "Metche Dershe (When am I going to reach there)"
    PERFORMER "Mulatu Astatqй"
    FLAGS DCP
    INDEX 01 00:00:00
FILE "Mulatu Astatqй - Ethiopiques, Vol 4- Ethio Jazz & Musique Instrumentale 1969-1974 [1998] [FLAC]\03- Kasalefkut Hulu (From all the time I have passed).wav" WAVE
  TRACK 03 AUDIO
    TITLE "Kasalefkut Hulu (From all the time I have passed)"
    PERFORMER "Mulatu Astatqй"
    FLAGS DCP
    INDEX 01 00:00:00
FILE "Mulatu Astatqй - Ethiopiques, Vol 4- Ethio Jazz & Musique Instrumentale 1969-1974 [1998] [FLAC]\04- Tezeta (Nostalgia).wav" WAVE
  TRACK 04 AUDIO
    TITLE "Tezeta (Nostalgia)"
    PERFORMER "Mulatu Astatqй"
    FLAGS DCP
    INDEX 01 00:00:00
FILE "Mulatu Astatqй - Ethiopiques, Vol 4- Ethio Jazz & Musique Instrumentale 1969-1974 [1998] [FLAC]\05- Yegelle Tezeta (My own memory).wav" WAVE
  TRACK 05 AUDIO
    TITLE "Yegelle Tezeta (My own memory)"
    PERFORMER "Mulatu Astatqй"
    FLAGS DCP
    INDEX 01 00:00:00
FILE "Mulatu Astatqй - Ethiopiques, Vol 4- Ethio Jazz & Musique Instrumentale 1969-1974 [1998] [FLAC]\06- Munaye (My Muna).wav" WAVE
  TRACK 06 AUDIO
    TITLE "Munaye (My Muna)"
    PERFORMER "Mulatu Astatqй"
    FLAGS DCP
    INDEX 01 00:00:00
FILE "Mulatu Astatqй - Ethiopiques, Vol 4- Ethio Jazz & Musique Instrumentale 1969-1974 [1998] [FLAC]\07- Gubelye (My Gubel).wav" WAVE
  TRACK 07 AUDIO
    TITLE "Gubelye (My Gubel)"
    PERFORMER "Mulatu Astatqй"
    FLAGS DCP
    INDEX 01 00:00:00
FILE "Mulatu Astatqй - Ethiopiques, Vol 4- Ethio Jazz & Musique Instrumentale 1969-1974 [1998] [FLAC]\08- Asmarina (My Asmara).wav" WAVE
  TRACK 08 AUDIO
    TITLE "Asmarina (My Asmara)"
    PERFORMER "Mulatu Astatqй"
    FLAGS DCP
    INDEX 01 00:00:00
FILE "Mulatu Astatqй - Ethiopiques, Vol 4- Ethio Jazz & Musique Instrumentale 1969-1974 [1998] [FLAC]\09- Yekatit (February).wav" WAVE
  TRACK 09 AUDIO
    TITLE "Yekatit (February)"
    PERFORMER "Mulatu Astatqй"
    FLAGS DCP
    INDEX 01 00:00:00
FILE "Mulatu Astatqй - Ethiopiques, Vol 4- Ethio Jazz & Musique Instrumentale 1969-1974 [1998] [FLAC]\10- Netsanet (Liberty).wav" WAVE
  TRACK 10 AUDIO
    TITLE "Netsanet (Liberty)"
    PERFORMER "Mulatu Astatqй"
    FLAGS DCP
    INDEX 01 00:00:00
FILE "Mulatu Astatqй - Ethiopiques, Vol 4- Ethio Jazz & Musique Instrumentale 1969-1974 [1998] [FLAC]\11- Tezetaye antchi Lidj (Baby, my unforgettable remembrance).wav" WAVE
  TRACK 11 AUDIO
    TITLE "Tezetaye antchi Lidj (Baby, my unforgettable remembrance)"
    PERFORMER "Mulatu Astatqй"
    FLAGS DCP
    INDEX 01 00:00:00
FILE "Mulatu Astatqй - Ethiopiques, Vol 4- Ethio Jazz & Musique Instrumentale 1969-1974 [1998] [FLAC]\12- Sabye (My Saba).wav" WAVE
  TRACK 12 AUDIO
    TITLE "Sabye (My Saba)"
    PERFORMER "Mulatu Astatqй"
    FLAGS DCP
    INDEX 01 00:00:00
FILE "Mulatu Astatqй - Ethiopiques, Vol 4- Ethio Jazz & Musique Instrumentale 1969-1974 [1998] [FLAC]\13- Ene Alantchi Alnorem (I can't live without you).wav" WAVE
  TRACK 13 AUDIO
    TITLE "Ene Alantchi Alnorem (I can't live without you)"
    PERFORMER "Mulatu Astatqй"
    FLAGS DCP
    INDEX 01 00:00:00
FILE "Mulatu Astatqй - Ethiopiques, Vol 4- Ethio Jazz & Musique Instrumentale 1969-1974 [1998] [FLAC]\14- Dewel (Bell).wav" WAVE
  TRACK 14 AUDIO
    TITLE "Dewel (Bell)"
    PERFORMER "Mulatu Astatqй"
    FLAGS DCP
    INDEX 01 00:00:00
06:45
596
Нет комментариев. Ваш будет первым!