Поиск

(World Fusion) John Kaizan Neptune - Jazzen - 1987, APE (image+.cue), lossless

(World Fusion) John Kaizan Neptune - Jazzen - 1987, APE (image+.cue), lossless
John Kaizan Neptune - Jazzen
Жанр: World Fusion
Год выпуска диска: 1987
Производитель диска: DENON, Japan
Аудио кодек: APE
Тип рипа: image+.cue
Битрейт аудио: lossless
Продолжительность: 66:11
Трэклист:
1. Five Directions 7:15
2. Water's Edge 7:47
3. On A Raft 5:47
4. Bamboo Born 5:06
5. Can You Feel The Beat 5:18
6. Essence 8:12
7. Skip It 4:56
8. Todi 7:07
9. Footnotes 5:27
10. Zen Forest 9:10
All compositions by John Kaizan Neptune
Personnel:
John Kaizan Neptune (Shakuhachi)
Takao Naoi (Guitar)
Hitoshi Hamada (Vibraphone and Marimba)
Yoshinori Nohmi (Percussion)
Yukihiro Takao (Double Bass)

Рип не мой.
John Kaizan Neptune - живущий в японии американский исполнитель на shakuhachi - японской бамбуковой флейте
Ещё один альбом John Kaizan Neptune Take Dake with John Kaizan Neptune - Asian Roots
 
описание на английском
John Kaizan Neptune is the undisputed master of the shakuhachi, a Japanese bamboo flute, especially as it has been applied to jazz! What an unusual pairing - a traditional eastern instrument with an indigenously western musical idiom. In his CD entitled "Jazzen" Neptune creates a beautiful and breath-taking fusion of oriental sensibility and smooth jazz, creating an ethereal sound that is sure to calm the mind, satisfy the soul, and transport the body to places where cultures meet. With songs like On A Raft, Water's Edge, Zen Forest, Five Directions, and Essence, among others, John Neptune generates a wonderful tapestry of color, diversity of sound, and transcendence of being through the unmistakable and haunting tones of the shakuhachi. If you have never heard this instrument, then you're in for a treat as it is played by one of it's true masters. Originally related to meditative practices in early zen temples, Neptune's application of the instrument to the jazz idiom can best be described as
extraordinary! - by Ellis Ivory, Amazon.com
 
Лог EAC
Exact Audio Copy V0.99 prebeta 4 from 23. January 2008
EAC extraction logfile from 13. June 2009, 12:45
John Kaizan Neptune / Jazzen
Used drive : _NEC DVD_RW ND-3500AG Adapter: 0 ID: 0
Read mode : Secure
Utilize accurate stream : Yes
Defeat audio cache : Yes
Make use of C2 pointers : No
Read offset correction : 48
Overread into Lead-In and Lead-Out : No
Fill up missing offset samples with silence : Yes
Delete leading and trailing silent blocks : No
Null samples used in CRC calculations : Yes
Used interface : Native Win32 interface for Win NT & 2000
Used output format : Internal WAV Routines
Sample format : 44.100 Hz; 16 Bit; Stereo
TOC of the extracted CD
Track | Start | Length | Start sector | End sector
---------------------------------------------------------
1 | 0:00.00 | 7:15.52 | 0 | 32676
2 | 7:15.52 | 7:47.48 | 32677 | 67749
3 | 15:03.25 | 5:47.57 | 67750 | 93831
4 | 20:51.07 | 5:06.13 | 93832 | 116794
5 | 25:57.20 | 5:18.65 | 116795 | 140709
6 | 31:16.10 | 8:12.22 | 140710 | 177631
7 | 39:28.32 | 4:56.68 | 177632 | 199899
8 | 44:25.25 | 7:07.00 | 199900 | 231924
9 | 51:32.25 | 5:27.65 | 231925 | 256514
10 | 57:00.15 | 9:11.00 | 256515 | 297839
Range status and errors
Selected range
Filename J:\Rip\John Kaizan Neptune - Jazzen.wav
Peak level 100.0 %
Range quality 99.9 %
Copy CRC 7464B4AF
Copy OK
No errors occurred
End of status report
07:44
373
Нет комментариев. Ваш будет первым!