Поиск

(World Fusion, Drum`n`Bass) Trio Grande presents Quadro Nuevo Remixed - 2006, APE (image+.cue), lossless

(World Fusion, Drum`n`Bass) Trio Grande presents Quadro Nuevo Remixed - 2006, APE (image+.cue), lossless
Треклист:
Trio Grande presents Quadro Nuevo Remixed
Жанр: World Fusion, Drum`n`Bass
Издание: FINE MUSIC, FM 122-2, 2006 год
Аудио кодек: APE
Тип рипа: image+.cue
Продолжительность: 0:48:52
Трэклист:
01. Cafe Europa
02. Arabesque
03. Jakob Elija
04. Tango Gosselin
05. Giovanni Tranquillo
06. Swingin' High
07. La Luna
08. Fiera Triste
09. Sultana
10. El Sospiro del Moro
Персоналии:
TRIO GRANDE:
Umberto Echo - electric bass & guitar, programming, keys
DJ Explizit - turntables, programming, drums & percussion
Dave Geene - keyboards, electric bass, programming
QUADRO NUEVO:
Robert Wolf - acoustic guitar
Mulo Francel - saxophones, clarinets
D. D. Lowka - acoustic bass, percussion
Andreas Hinterseher - accordion, vibrandoneon
 
Отчёт EAC
Exact Audio Copy V0.99 prebeta 4 from 23. January 2008
Отчёт EAC об извлечении, выполненном 21. июня 2009, 9:42
Trio Grande / Quadro Nuevo remixed
Дисковод: PIONEER DVD-RW DVR-108 Adapter: 4 ID: 1
Режим чтения : Достоверность
Использование точного потока : Да
Отключение кэша аудио : Да
Использование указателей C2 : Нет
Коррекция смещения при чтении : 48
Способность читать области Lead-in и Lead-out : Нет
Заполнение пропущенных сэмплов тишиной : Да
Удаление блоков с тишиной в начале и конце : Нет
При вычислениях CRC использовались нулевые сэмплы : Да
Интерфейс : Встроенный Win32-интерфейс для Win NT/2000
Выходной формат : Внутренние WAV-операции
Формат сэмплов : 44.100 Гц; 16 бит; стерео
TOC извлечённого CD
Трек | Старт | Длительность | Начальный сектор | Конечный сектор
---------------------------------------------------------------------
1 | 0:00.00 | 5:08.17 | 0 | 23116
2 | 5:08.17 | 4:07.04 | 23117 | 41645
3 | 9:15.21 | 5:24.56 | 41646 | 66001
4 | 14:40.02 | 4:24.41 | 66002 | 85842
5 | 19:04.43 | 6:01.05 | 85843 | 112922
6 | 25:05.48 | 5:04.59 | 112923 | 135781
7 | 30:10.32 | 4:45.47 | 135782 | 157203
8 | 34:56.04 | 3:54.16 | 157204 | 174769
9 | 38:50.20 | 4:18.10 | 174770 | 194129
10 | 43:08.30 | 5:43.09 | 194130 | 219863
Характеристики диапазона извлечения и сообщения об ошибках
Выбранный диапазон
Имя файла J:\New Torrents\Trio Grande - Quadro Nuevo remixed\Trio Grande - Quadro Nuevo remixed.wav
Пиковый уровень 98.8 %
Качество диапазона 100.0 %
CRC копии 21E040A7
Копирование... OK
Ошибок не произошло
AccurateRip: сводка
Трек 1 точное извлечение (доверие 1) [E6D44BB6]
Трек 2 точное извлечение (доверие 1) [1DA2BF55]
Трек 3 точное извлечение (доверие 1) [E1F81923]
Трек 4 точное извлечение (доверие 1) [67DE8C42]
Трек 5 точное извлечение (доверие 1) [05C33595]
Трек 6 точное извлечение (доверие 1) [69A0E4A7]
Трек 7 точное извлечение (доверие 1) [04962F34]
Трек 8 точное извлечение (доверие 1) [371A7F6E]
Трек 9 точное извлечение (доверие 1) [B85EC18B]
Трек 10 точное извлечение (доверие 1) [AC672106]
Все треки извлечены точно
Конец отчёта
Ну мне лично Quadro Nuevo больше нравится в немикшированном виде.
Download available for power users only.
06:46
226
Нет комментариев. Ваш будет первым!