Поиск

(Cool, Latin Jazz) Cal Tjader & Eddie Palmieri - El Sonido Nuevo (1966-1967) - 1993, FLAC (tracks+.cue) lossless

Треклист:
Cal Tjader & Eddie Palmieri - El Sonido Nuevo
Жанр: Cool, Latin Jazz
Страна-производитель диска: США
Год издания диска: 1993
Издатель (лейбл): Verve
Номер по каталогу: 314 519 812-2
Аудио кодек: FLAC (*.flac)
Тип рипа: tracks+.cue
Битрейт аудио: lossless
Продолжительность: 53:42
Источник (релизер): badbetty (what)
Наличие сканов в содержимом раздачи: да
Треклист:
01. Los Jibaros (Rivera-Roddie) - 2:46
02. Guajira en Azul (Palmieri-Tjader) - 3:29
03. Ritmo Uni (Palmieri-Rodriguez) - 3:53
04. Picadillo (Puente) - 7:08
05. Modesty (Theme from Modesty Blaise) (Dankworth-Green) - 2:30
06. Unidos (Palmieri-Tjader) - 4:37
07. On a Clear Day You Can See Forever (Lane-Lerner) - 1:55
08. El Sonido Nuevo (Palmieri-Tjader) - 5:07
09. Fuji (Tjader) - 2:35
10. Black Orchid (Tjader) - 3:13
11. Los Bandidos (Tjader) - 7:19
12. Poinciana (Simon-Bernier) - 3:28
13. Yellow Days (Carrillo-Bernstein) - 2:22
14. Along Comes Mary (Almer) - 3:20
Состав:
Cal Tjader - vibraphone
Eddie Palmieri - piano
Julian Priester, Mark Weinstein - trombone
Barry Rogers, Jose Rodriguez - trombone, congas
George Castro - flute, percussion
Ismael Quintana - percussion
Bobby Rodriguez - bass
Tommy Lopez, Manny Oquendo - drums
Recorded in 1966-1967.
 
Лог создания рипа
X Lossless Decoder version 20140504 (147.0)
XLD extraction logfile from 2014-06-05 15:35:40 +0100
Cal Tjader & Eddie Palmieri / El Sonido Nuevo
Used drive : MATSHITA DVD-R UJ-8A8 (revision HB14)
Media type : Pressed CD
Ripper mode : XLD Secure Ripper
Disable audio cache : OK for the drive with a cache less than 1375KiB
Make use of C2 pointers : NO
Read offset correction : 102
Max retry count : 100
Gap status : Analyzed, Appended
TOC of the extracted CD
Track | Start | Length | Start sector | End sector
---------------------------------------------------------
1 | 00:00:32 | 02:45:70 | 32 | 12476
2 | 02:46:27 | 03:28:70 | 12477 | 28146
3 | 06:15:22 | 03:53:33 | 28147 | 45654
4 | 10:08:55 | 07:07:52 | 45655 | 77731
5 | 17:16:32 | 02:30:23 | 77732 | 89004
6 | 19:46:55 | 04:36:72 | 89005 | 109776
7 | 24:23:52 | 01:55:25 | 109777 | 118426
8 | 26:19:02 | 05:07:30 | 118427 | 141481
9 | 31:26:32 | 02:34:65 | 141482 | 153096
10 | 34:01:22 | 03:13:20 | 153097 | 167591
11 | 37:14:42 | 07:18:60 | 167592 | 200501
12 | 44:33:27 | 03:27:40 | 200502 | 216066
13 | 48:00:67 | 02:22:10 | 216067 | 226726
14 | 50:23:02 | 03:20:05 | 226727 | 241731
List of alternate offset correction values
# | Absolute | Relative | Confidence
------------------------------------------
1 | -92 | -194 | 4
AccurateRip Summary (DiscID: 001be663-012af8f9-c70c970e)
Track 01 : OK (v1+v2, confidence 8/12)
Track 02 : OK (v1+v2, confidence 8/12)
Track 03 : OK (v1+v2, confidence 8/12)
Track 04 : OK (v1+v2, confidence 8/12)
Track 05 : OK (v1+v2, confidence 8/12)
Track 06 : OK (v1+v2, confidence 8/12)
Track 07 : OK (v1+v2, confidence 8/12)
Track 08 : OK (v1+v2, confidence 8/12)
Track 09 : OK (v1+v2, confidence 8/12)
Track 10 : OK (v1+v2, confidence 8/12)
Track 11 : OK (v1+v2, confidence 8/12)
Track 12 : OK (v1+v2, confidence 8/12)
Track 13 : OK (v1+v2, confidence 8/12)
Track 14 : OK (v1+v2, confidence 8/12)
->All tracks accurately ripped.
All Tracks
Album gain : -2.93 dB
Peak : 1.000000
Statistics
Read error : 0
Jitter error (maybe fixed) : 0
Retry sector count : 0
Damaged sector count : 0
Track 01
Filename : /XLD/Cal Tjader & Eddie Palmieri - 1966 - El Sonido Nuevo [FLAC]/01 Los Jibaros.flac
/XLD/Cal Tjader & Eddie Palmieri - 1966 - El Sonido Nuevo [LAME MP3 (320)]/01 Los Jibaros.mp3
Pre-gap length : 00:02:32
Track gain : -3.82 dB
Peak : 0.899414
CRC32 hash (test run) : E41C36DD
CRC32 hash : E41C36DD
CRC32 hash (skip zero) : 79F6383C
AccurateRip v1 signature : AE32B124
AccurateRip v2 signature : 5095C75E
->Accurately ripped (v1+v2, confidence 5+3/12)
Statistics
Read error : 0
Jitter error (maybe fixed) : 0
Retry sector count : 0
Damaged sector count : 0
Track 02
Filename : /XLD/Cal Tjader & Eddie Palmieri - 1966 - El Sonido Nuevo [FLAC]/02 Guajira en Azul.flac
/XLD/Cal Tjader & Eddie Palmieri - 1966 - El Sonido Nuevo [LAME MP3 (320)]/02 Guajira en Azul.mp3
Pre-gap length : 00:02:50
Track gain : -3.61 dB
Peak : 0.921570
CRC32 hash (test run) : D50193F3
CRC32 hash : D50193F3
CRC32 hash (skip zero) : 2ABFF4EA
AccurateRip v1 signature : 4126F493
AccurateRip v2 signature : B5094A4C
->Accurately ripped (v1+v2, confidence 5+3/12)
Statistics
Read error : 0
Jitter error (maybe fixed) : 0
Retry sector count : 0
Damaged sector count : 0
Track 03
Filename : /XLD/Cal Tjader & Eddie Palmieri - 1966 - El Sonido Nuevo [FLAC]/03 Ritmo Uni.flac
/XLD/Cal Tjader & Eddie Palmieri - 1966 - El Sonido Nuevo [LAME MP3 (320)]/03 Ritmo Uni.mp3
Pre-gap length : 00:02:65
Track gain : -3.30 dB
Peak : 0.830811
CRC32 hash (test run) : 9EA2A79F
CRC32 hash : 9EA2A79F
CRC32 hash (skip zero) : 7B8AB164
AccurateRip v1 signature : 24964EED
AccurateRip v2 signature : 008F6099
->Accurately ripped (v1+v2, confidence 5+3/12)
Statistics
Read error : 0
Jitter error (maybe fixed) : 0
Retry sector count : 0
Damaged sector count : 0
Track 04
Filename : /XLD/Cal Tjader & Eddie Palmieri - 1966 - El Sonido Nuevo [FLAC]/04 Picadillo.flac
/XLD/Cal Tjader & Eddie Palmieri - 1966 - El Sonido Nuevo [LAME MP3 (320)]/04 Picadillo.mp3
Pre-gap length : 00:02:38
Track gain : -3.23 dB
Peak : 0.834595
CRC32 hash (test run) : 3C59CF8B
CRC32 hash : 3C59CF8B
CRC32 hash (skip zero) : CDD58D8C
AccurateRip v1 signature : 218BA96E
AccurateRip v2 signature : 67DFE702
->Accurately ripped (v1+v2, confidence 5+3/12)
Statistics
Read error : 0
Jitter error (maybe fixed) : 0
Retry sector count : 0
Damaged sector count : 0
Track 05
Filename : /XLD/Cal Tjader & Eddie Palmieri - 1966 - El Sonido Nuevo [FLAC]/05 Modesty [theme from Modesty Blaise].flac
/XLD/Cal Tjader & Eddie Palmieri - 1966 - El Sonido Nuevo [LAME MP3 (320)]/05 Modesty [theme from Modesty Blaise].mp3
Pre-gap length : 00:03:67
Track gain : -2.46 dB
Peak : 0.739319
CRC32 hash (test run) : 8DFA338D
CRC32 hash : 8DFA338D
CRC32 hash (skip zero) : ECE19160
AccurateRip v1 signature : F5E1C812
AccurateRip v2 signature : 78E3647B
->Accurately ripped (v1+v2, confidence 5+3/12)
Statistics
Read error : 0
Jitter error (maybe fixed) : 0
Retry sector count : 0
Damaged sector count : 0
Track 06
Filename : /XLD/Cal Tjader & Eddie Palmieri - 1966 - El Sonido Nuevo [FLAC]/06 Unidos.flac
/XLD/Cal Tjader & Eddie Palmieri - 1966 - El Sonido Nuevo [LAME MP3 (320)]/06 Unidos.mp3
Pre-gap length : 00:02:40
Track gain : -4.22 dB
Peak : 0.855377
CRC32 hash (test run) : 4B921770
CRC32 hash : 4B921770
CRC32 hash (skip zero) : DEE061E8
AccurateRip v1 signature : 6737C769
AccurateRip v2 signature : AB25F8B5
->Accurately ripped (v1+v2, confidence 5+3/12)
Statistics
Read error : 0
Jitter error (maybe fixed) : 0
Retry sector count : 0
Damaged sector count : 0
Track 07
Filename : /XLD/Cal Tjader & Eddie Palmieri - 1966 - El Sonido Nuevo [FLAC]/07 On a Clear Day You Can See Forever.flac
/XLD/Cal Tjader & Eddie Palmieri - 1966 - El Sonido Nuevo [LAME MP3 (320)]/07 On a Clear Day You Can See Forever.mp3
Pre-gap length : 00:02:40
Track gain : -2.77 dB
Peak : 0.697052
CRC32 hash (test run) : A18F44F2
CRC32 hash : A18F44F2
CRC32 hash (skip zero) : 10357BB0
AccurateRip v1 signature : B45BFE47
AccurateRip v2 signature : F65E8751
->Accurately ripped (v1+v2, confidence 5+3/12)
Statistics
Read error : 0
Jitter error (maybe fixed) : 0
Retry sector count : 0
Damaged sector count : 0
Track 08
Filename : /XLD/Cal Tjader & Eddie Palmieri - 1966 - El Sonido Nuevo [FLAC]/08 El Sonido Nuevo.flac
/XLD/Cal Tjader & Eddie Palmieri - 1966 - El Sonido Nuevo [LAME MP3 (320)]/08 El Sonido Nuevo.mp3
Pre-gap length : 00:02:30
Track gain : -2.29 dB
Peak : 0.913452
CRC32 hash (test run) : 17843503
CRC32 hash : 17843503
CRC32 hash (skip zero) : 2E8829E1
AccurateRip v1 signature : 774D2601
AccurateRip v2 signature : 15375672
->Accurately ripped (v1+v2, confidence 5+3/12)
Statistics
Read error : 0
Jitter error (maybe fixed) : 0
Retry sector count : 0
Damaged sector count : 0
Track 09
Filename : /XLD/Cal Tjader & Eddie Palmieri - 1966 - El Sonido Nuevo [FLAC]/09 Fuji.flac
/XLD/Cal Tjader & Eddie Palmieri - 1966 - El Sonido Nuevo [LAME MP3 (320)]/09 Fuji.mp3
Pre-gap length : 00:04:62
Track gain : -2.38 dB
Peak : 0.999969
CRC32 hash (test run) : 5477C780
CRC32 hash : 5477C780
CRC32 hash (skip zero) : 851254D6
AccurateRip v1 signature : 6F291550
AccurateRip v2 signature : FBB71040
->Accurately ripped (v1+v2, confidence 5+3/12)
Statistics
Read error : 0
Jitter error (maybe fixed) : 0
Retry sector count : 0
Damaged sector count : 0
Track 10
Filename : /XLD/Cal Tjader & Eddie Palmieri - 1966 - El Sonido Nuevo [FLAC]/10 Black Orchid.flac
/XLD/Cal Tjader & Eddie Palmieri - 1966 - El Sonido Nuevo [LAME MP3 (320)]/10 Black Orchid.mp3
Pre-gap length : 00:01:65
Track gain : 0.49 dB
Peak : 0.979065
CRC32 hash (test run) : 3E56332F
CRC32 hash : 3E56332F
CRC32 hash (skip zero) : F8EF27B8
AccurateRip v1 signature : 751EE46B
AccurateRip v2 signature : 6A499DF2
->Accurately ripped (v1+v2, confidence 5+3/12)
Statistics
Read error : 0
Jitter error (maybe fixed) : 0
Retry sector count : 0
Damaged sector count : 0
Track 11
Filename : /XLD/Cal Tjader & Eddie Palmieri - 1966 - El Sonido Nuevo [FLAC]/11 Los Bandidos.flac
/XLD/Cal Tjader & Eddie Palmieri - 1966 - El Sonido Nuevo [LAME MP3 (320)]/11 Los Bandidos.mp3
Pre-gap length : 00:02:67
Track gain : -2.00 dB
Peak : 0.837952
CRC32 hash (test run) : 06EA9894
CRC32 hash : 06EA9894
CRC32 hash (skip zero) : A3E6F014
AccurateRip v1 signature : 45DEF3D5
AccurateRip v2 signature : D8F6F75C
->Accurately ripped (v1+v2, confidence 5+3/12)
Statistics
Read error : 0
Jitter error (maybe fixed) : 0
Retry sector count : 0
Damaged sector count : 0
Track 12
Filename : /XLD/Cal Tjader & Eddie Palmieri - 1966 - El Sonido Nuevo [FLAC]/12 Poinciana.flac
/XLD/Cal Tjader & Eddie Palmieri - 1966 - El Sonido Nuevo [LAME MP3 (320)]/12 Poinciana.mp3
Pre-gap length : 00:02:65
Track gain : -2.47 dB
Peak : 1.000000
CRC32 hash (test run) : 0AAB9D2E
CRC32 hash : 0AAB9D2E
CRC32 hash (skip zero) : 3172B9D0
AccurateRip v1 signature : 02BA05B3
AccurateRip v2 signature : 3BD5441F
->Accurately ripped (v1+v2, confidence 5+3/12)
Statistics
Read error : 0
Jitter error (maybe fixed) : 0
Retry sector count : 0
Damaged sector count : 0
Track 13
Filename : /XLD/Cal Tjader & Eddie Palmieri - 1966 - El Sonido Nuevo [FLAC]/13 Yellow Days.flac
/XLD/Cal Tjader & Eddie Palmieri - 1966 - El Sonido Nuevo [LAME MP3 (320)]/13 Yellow Days.mp3
Pre-gap length : 00:02:62
Track gain : -1.14 dB
Peak : 1.000000
CRC32 hash (test run) : 812AE6AB
CRC32 hash : 812AE6AB
CRC32 hash (skip zero) : 25BD8CE0
AccurateRip v1 signature : 9054367B
AccurateRip v2 signature : E9E315B0
->Accurately ripped (v1+v2, confidence 5+3/12)
Statistics
Read error : 0
Jitter error (maybe fixed) : 0
Retry sector count : 0
Damaged sector count : 0
Track 14
Filename : /XLD/Cal Tjader & Eddie Palmieri - 1966 - El Sonido Nuevo [FLAC]/14 Along Comes Mary.flac
/XLD/Cal Tjader & Eddie Palmieri - 1966 - El Sonido Nuevo [LAME MP3 (320)]/14 Along Comes Mary.mp3
Pre-gap length : 00:02:67
Track gain : -0.45 dB
Peak : 0.864197
CRC32 hash (test run) : B9F35690
CRC32 hash : B9F35690
CRC32 hash (skip zero) : 83CFD195
AccurateRip v1 signature : 889259BA
AccurateRip v2 signature : 8F9EF0D7
->Accurately ripped (v1+v2, confidence 5+3/12)
Statistics
Read error : 0
Jitter error (maybe fixed) : 0
Retry sector count : 0
Damaged sector count : 0
No errors occurred
End of status report
-----BEGIN XLD SIGNATURE-----
me3xAEy9B12aMOmSQD2zLPwWYYKOaviNlqQuk2ilCIT1akKBj.WdcCJAxXcmrZCXhgH09I7pRfsC2Yvc9RXiCsSPk9jmuL0RtKZmJfy
-----END XLD SIGNATURE-----
 
Содержание индексной карты (.CUE)
TITLE "El Sonido Nuevo"
PERFORMER "Cal Tjader & Eddie Palmieri"
REM GENRE "Jazz"
REM DATE "1966"
REM DISCID C70C970E
REM REPLAYGAIN_ALBUM_GAIN -2.93 dB
REM REPLAYGAIN_ALBUM_PEAK 1.000000
FILE "01 - Los Jibaros.flac" WAVE
TRACK 01 AUDIO
TITLE "Los Jibaros"
REM REPLAYGAIN_TRACK_GAIN -3.82 dB
REM REPLAYGAIN_TRACK_PEAK 0.899414
INDEX 00 00:00:00
INDEX 01 00:00:32
TRACK 02 AUDIO
TITLE "Guajira en Azul"
REM REPLAYGAIN_TRACK_GAIN -3.61 dB
REM REPLAYGAIN_TRACK_PEAK 0.921570
INDEX 00 02:43:52
FILE "02 - Guajira en Azul.flac" WAVE
INDEX 01 00:00:00
TRACK 03 AUDIO
TITLE "Ritmo Uni"
REM REPLAYGAIN_TRACK_GAIN -3.30 dB
REM REPLAYGAIN_TRACK_PEAK 0.830811
INDEX 00 03:26:05
FILE "03 - Ritmo Uni.flac" WAVE
INDEX 01 00:00:00
TRACK 04 AUDIO
TITLE "Picadillo"
REM REPLAYGAIN_TRACK_GAIN -3.23 dB
REM REPLAYGAIN_TRACK_PEAK 0.834595
INDEX 00 03:50:70
FILE "04 - Picadillo.flac" WAVE
INDEX 01 00:00:00
TRACK 05 AUDIO
TITLE "Modesty (Theme from Modesty Blaise)"
REM REPLAYGAIN_TRACK_GAIN -2.46 dB
REM REPLAYGAIN_TRACK_PEAK 0.739319
INDEX 00 07:03:60
FILE "05 - Modesty (Theme from Modesty Blaise).flac" WAVE
INDEX 01 00:00:00
TRACK 06 AUDIO
TITLE "Unidos"
REM REPLAYGAIN_TRACK_GAIN -4.22 dB
REM REPLAYGAIN_TRACK_PEAK 0.855377
INDEX 00 02:27:58
FILE "06 - Unidos.flac" WAVE
INDEX 01 00:00:00
TRACK 07 AUDIO
TITLE "On a Clear Day You Can See Forever"
REM REPLAYGAIN_TRACK_GAIN -2.77 dB
REM REPLAYGAIN_TRACK_PEAK 0.697052
INDEX 00 04:34:32
FILE "07 - On a Clear Day You Can See Forever.flac" WAVE
INDEX 01 00:00:00
TRACK 08 AUDIO
TITLE "El Sonido Nuevo"
REM REPLAYGAIN_TRACK_GAIN -2.29 dB
REM REPLAYGAIN_TRACK_PEAK 0.913452
INDEX 00 01:52:70
FILE "08 - El Sonido Nuevo.flac" WAVE
INDEX 01 00:00:00
TRACK 09 AUDIO
TITLE "Fuji"
REM REPLAYGAIN_TRACK_GAIN -2.38 dB
REM REPLAYGAIN_TRACK_PEAK 0.999969
INDEX 00 05:02:43
FILE "09 - Fuji.flac" WAVE
INDEX 01 00:00:00
TRACK 10 AUDIO
TITLE "Black Orchid"
REM REPLAYGAIN_TRACK_GAIN 0.49 dB
REM REPLAYGAIN_TRACK_PEAK 0.979065
INDEX 00 02:33:00
FILE "10 - Black Orchid.flac" WAVE
INDEX 01 00:00:00
TRACK 11 AUDIO
TITLE "Los Bandidos"
REM REPLAYGAIN_TRACK_GAIN -2.00 dB
REM REPLAYGAIN_TRACK_PEAK 0.837952
INDEX 00 03:10:28
FILE "11 - Los Bandidos.flac" WAVE
INDEX 01 00:00:00
TRACK 12 AUDIO
TITLE "Poinciana"
REM REPLAYGAIN_TRACK_GAIN -2.47 dB
REM REPLAYGAIN_TRACK_PEAK 1.000000
INDEX 00 07:15:70
FILE "12 - Poinciana.flac" WAVE
INDEX 01 00:00:00
TRACK 13 AUDIO
TITLE "Yellow Days"
REM REPLAYGAIN_TRACK_GAIN -1.14 dB
REM REPLAYGAIN_TRACK_PEAK 1.000000
INDEX 00 03:24:53
FILE "13 - Yellow Days.flac" WAVE
INDEX 01 00:00:00
TRACK 14 AUDIO
TITLE "Along Comes Mary"
REM REPLAYGAIN_TRACK_GAIN -0.45 dB
REM REPLAYGAIN_TRACK_PEAK 0.864197
INDEX 00 02:19:18
FILE "14 - Along Comes Mary.flac" WAVE
INDEX 01 00:00:00
 
Отчет CUETools
[CUETools log; Date: 05.06.2014 22:30:45; Version: 2.1.4]
Pregap length 00:00:32.
[CTDB TOCID: gFZk6GP9roj6c827bwSOIWeVLCA-] found.
Track | CTDB Status
1 | (1/1) Accurately ripped
2 | (1/1) Accurately ripped
3 | (1/1) Accurately ripped
4 | (1/1) Accurately ripped
5 | (1/1) Accurately ripped
6 | (1/1) Accurately ripped
7 | (1/1) Accurately ripped
8 | (1/1) Accurately ripped
9 | (1/1) Accurately ripped
10 | (1/1) Accurately ripped
11 | (1/1) Accurately ripped
12 | (1/1) Accurately ripped
13 | (1/1) Accurately ripped
14 | (1/1) Accurately ripped
[AccurateRip ID: 001be663-012af8f9-c70c970e] found.
Track [ CRC | V2 ] Status
01 [ae32b124|5095c75e] (05+03/12) Accurately ripped
02 [4126f493|b5094a4c] (05+03/12) Accurately ripped
03 [24964eed|008f6099] (05+03/12) Accurately ripped
04 [218ba96e|67dfe702] (05+03/12) Accurately ripped
05 [f5e1c812|78e3647b] (05+03/12) Accurately ripped
06 [6737c769|ab25f8b5] (05+03/12) Accurately ripped
07 [b45bfe47|f65e8751] (05+03/12) Accurately ripped
08 [774d2601|15375672] (05+03/12) Accurately ripped
09 [6f291550|fbb71040] (05+03/12) Accurately ripped
10 [751ee46b|6a499df2] (05+03/12) Accurately ripped
11 [45def3d5|d8f6f75c] (05+03/12) Accurately ripped
12 [02ba05b3|3bd5441f] (05+03/12) Accurately ripped
13 [9054367b|e9e315b0] (05+03/12) Accurately ripped
14 [889259ba|8f9ef0d7] (05+03/12) Accurately ripped
Offsetted by -194:
01 [03277016] (04/12) Accurately ripped
02 [d8e719cd] (04/12) Accurately ripped
03 [24253e71] (04/12) Accurately ripped
04 [a560f146] (04/12) Accurately ripped
05 [6a79b760] (04/12) Accurately ripped
06 [40ceb66d] (04/12) Accurately ripped
07 [9e16c2f9] (04/12) Accurately ripped
08 [cba58473] (04/12) Accurately ripped
09 [678963f0] (04/12) Accurately ripped
10 [b2f7206b] (04/12) Accurately ripped
11 [7333ddf5] (04/12) Accurately ripped
12 [ec92dcc3] (04/12) Accurately ripped
13 [e3f0e90b] (04/12) Accurately ripped
14 [ca9d040e] (04/12) Accurately ripped
Track Peak [ CRC32 ] [W/O NULL]
-- 100,0 [C0211816] [0A437FDD]
01 89,9 [E41C36DD] [79F6383C]
02 92,1 [D50193F3] [2ABFF4EA]
03 83,0 [9EA2A79F] [7B8AB164]
04 83,4 [3C59CF8B] [CDD58D8C]
05 73,9 [8DFA338D] [ECE19160]
06 85,5 [4B921770] [DEE061E8]
07 69,7 [A18F44F2] [10357BB0]
08 91,3 [17843503] [2E8829E1]
09 100,0 [5477C780] [851254D6]
10 97,9 [3E56332F] [F8EF27B8]
11 83,7 [06EA9894] [A3E6F014]
12 100,0 [0AAB9D2E] [3172B9D0]
13 100,0 [812AE6AB] [25BD8CE0]
14 86,4 [B9F35690] [83CFD195]
 
Review by Scott Yanow
This Verve CD reissues the popular collaboration between vibraphonist Cal Tjader and pianist Eddie Palmieri (who provided the arrangements) titled El Sonido Nuevo: The New Soul Sound, along with six other songs taken from a pair of Tjader's other Verve albums. Despite the claims of greatness expressed in the liners ("a landmark in the history of Latin jazz"), much of the music is actually quite lightweight although enjoyable enough, and the easy listening melodies and accessible rhythms hold on to one's interest. Despite the changing personnel, Tjader is generally the lead voice, and he is in fine form even if the overall results are not all that memorable or unique. [El Sonido Nuevo was reissued in 2006 and includes bonus tracks.]
19:40
314
Нет комментариев. Ваш будет первым!