Поиск

(Latin Jazz) Chucho Valdes - Grandes Momentos de la Musica Cubana - 1996, FLAC (image+.cue) lossless

Треклист:
Chucho Valdes / Grandes Momentos de la Musica Cubana
Жанр: Latin Jazz
Страна-производитель диска: Италия
Год издания диска: 1996
Издатель (лейбл): milan latino
Номер по каталогу: 74321 32724-2
Аудио кодек: FLAC (*.flac)
Тип рипа: image+.cue
Битрейт аудио: lossless
Продолжительность: 36:06
Источник (релизер): frafra64 (hqshare)
Наличие сканов в содержимом раздачи: нет
Треклист:
01. El Manisero
02. Dos Perlas y un Dolor
03. La Sombra
04. Preludio No. 1
05. Me Faltabas Tu
06. Cancion de la Tarde
07. Cancion de un Festival
08. Sony
09. Realidad y Fantasia
10. Novia Mia
11. Tu, Mi Delirio
12. Invento No. 4
 
Лог создания рипа
Exact Audio Copy V0.99 prebeta 3 from 28. July 2007
EAC extraction logfile from 15. March 2009, 14:57
Chucho Valdes / Grandes Momentos de la Musica Cubana
Used drive : MATSHITADVD-ROM SR-8588 Adapter: 1 ID: 1
Read mode : Secure
Utilize accurate stream : Yes
Defeat audio cache : Yes
Make use of C2 pointers : No
Read offset correction : 103
Overread into Lead-In and Lead-Out : No
Fill up missing offset samples with silence : Yes
Delete leading and trailing silent blocks : No
Null samples used in CRC calculations : Yes
Used interface : Installed external ASPI interface
Used output format : Internal WAV Routines
Sample format : 44.100 Hz; 16 Bit; Stereo
TOC of the extracted CD
Track | Start | Length | Start sector | End sector
---------------------------------------------------------
1 | 0:00.32 | 3:38.28 | 32 | 16409
2 | 3:38.60 | 3:16.37 | 16410 | 31146
3 | 6:55.22 | 1:54.73 | 31147 | 39769
4 | 8:50.20 | 1:40.27 | 39770 | 47296
5 | 10:30.47 | 2:02.55 | 47297 | 56501
6 | 12:33.27 | 2:54.68 | 56502 | 69619
7 | 15:28.20 | 3:24.10 | 69620 | 84929
8 | 18:52.30 | 3:53.72 | 84930 | 102476
9 | 22:46.27 | 3:35.60 | 102477 | 118661
10 | 26:22.12 | 3:31.63 | 118662 | 134549
11 | 29:54.00 | 3:07.25 | 134550 | 148599
12 | 33:01.25 | 3:05.12 | 148600 | 162486
Range status and errors
Selected range
Filename J:\MMT\Chucho Valdes - Grandes Momentos de la Musica Cubana.wav
Peak level 99.3 %
Range quality 100.0 %
Test CRC F950ACC8
Copy CRC F950ACC8
Copy OK
No errors occurred
AccurateRip summary
Track 1 not present in database
Track 2 not present in database
Track 3 not present in database
Track 4 not present in database
Track 5 not present in database
Track 6 not present in database
Track 7 not present in database
Track 8 not present in database
Track 9 not present in database
Track 10 not present in database
Track 11 not present in database
Track 12 not present in database
None of the tracks are present in the AccurateRip database
End of status report
 
Об альбоме (сборнике)
Collection of Cuban recorded, hard-to-find material from one of the greatest piano players in the world today. Valdes is the winner of two Grammy Awards ( with Irakere and as a solo artist). These recordings are both solo and witha group and show him as a master keyboardist and improviser. The songs on this set stand up quite admirably with anything he has recorded recently with the Blue Note label.
18:41
253
Нет комментариев. Ваш будет первым!