Поиск

(Vocal-Jazz,Smooth Jazz) Carmen Cuesta/feat.David Mann,Chuck Loeb/ - Mi Bossa Nova - 2010, APE (image+.cue) lossless

Треклист:
Carmen Cuesta/feat.David Mann,Chuck Loeb/ / Mi Bossa Nova
Жанр: Vocal-Jazz,Smooth Jazz
Страна-производитель диска: Germany
Год издания диска: 2010
Издатель (лейбл): C.A.R.E Music Group
Страна: USA
Аудио кодек: APE (*.ape)
Тип рипа: image+.cue
Битрейт аудио: lossless
Продолжительность: 00:43:13
Источник (релизер): Рип из личного архива
Наличие сканов в содержимом раздачи: да
Треклист:
1.Triste
2.Fotografia
3.Retrato em Branco e Preto
4.O Barquinho
5.Pois E
6.Jobim
7.Modinha
8.Tormenta
9.Manha de Carnaval
10.Chega De Saudade
11.Meditacao
 
Лог создания рипа
Exact Audio Copy V0.99 prebeta 4 from 23. January 2008
Отчёт EAC об извлечении, выполненном 15. декабря 2010, 0:15
Carmen Cuesta / Mi Bossa Nova
Дисковод: _NEC DVD_RW ND-2510A Adapter: 1 ID: 0
Режим чтения : Достоверность
Использование точного потока : Да
Отключение кэша аудио : Да
Использование указателей C2 : Нет
Коррекция смещения при чтении : 48
Способность читать области Lead-in и Lead-out : Нет
Заполнение пропущенных сэмплов тишиной : Да
Удаление блоков с тишиной в начале и конце : Нет
При вычислениях CRC использовались нулевые сэмплы : Да
Интерфейс : Встроенный Win32-интерфейс для Win NT/2000
Выходной формат : Внутренние WAV-операции
Формат сэмплов : 44.100 Гц; 16 бит; стерео
TOC извлечённого CD
Трек | Старт | Длительность | Начальный сектор | Конечный сектор
---------------------------------------------------------------------
1 | 0:00.00 | 3:02.52 | 0 | 13701
2 | 3:02.52 | 4:16.63 | 13702 | 32964
3 | 7:19.40 | 5:07.67 | 32965 | 56056
4 | 12:27.32 | 3:51.48 | 56057 | 73429
5 | 16:19.05 | 3:25.27 | 73430 | 88831
6 | 19:44.32 | 4:43.22 | 88832 | 110078
7 | 24:27.54 | 3:05.21 | 110079 | 123974
8 | 27:33.00 | 3:20.62 | 123975 | 139036
9 | 30:53.62 | 3:59.63 | 139037 | 157024
10 | 34:53.50 | 3:49.45 | 157025 | 174244
11 | 38:43.20 | 4:29.60 | 174245 | 194479
Характеристики диапазона извлечения и сообщения об ошибках
Выбранный диапазон
Имя файла E:\ПРОЕКТ\Carmen Cuesta-Mi bossa nova 2010\Carmen Cuesta - Mi Bossa Nova.wav
Пиковый уровень 98.8 %
Качество диапазона 100.0 %
CRC теста F84997E2
CRC копии F84997E2
Копирование... OK
Ошибок не произошло
AccurateRip: сводка
Трек 1 точность не определена (достоверность 1) [FAD746F1], AccurateRip вернул [313A8B41]
Трек 2 точность не определена (достоверность 1) [D1F6D09B], AccurateRip вернул [34B6C29B]
Трек 3 точность не определена (достоверность 1) [3C602DD7], AccurateRip вернул [88FA5AE7]
Трек 4 точность не определена (достоверность 1) [F29604DD], AccurateRip вернул [8FD0C70D]
Трек 5 точность не определена (достоверность 1) [88E5AE03], AccurateRip вернул [ED62D9A3]
Трек 6 точность не определена (достоверность 1) [F7279EA1], AccurateRip вернул [8C85D601]
Трек 7 точность не определена (достоверность 1) [71F44426], AccurateRip вернул [48543726]
Трек 8 точность не определена (достоверность 1) [F9B37DF8], AccurateRip вернул [EC197048]
Трек 9 точность не определена (достоверность 1) [0039CD37], AccurateRip вернул [652F4AA7]
Трек 10 точность не определена (достоверность 1) [191EDF08], AccurateRip вернул [B4E6D838]
Трек 11 точность не определена (достоверность 1) [C7D8B80F], AccurateRip вернул [0C69905F]
Ни один трек не прошёл проверки на точность
В вашей базе может быть иной вариант штамповки диска
Конец отчёта
Состав
Carmen Cuesta-vocal
Matt King-piano
Brian Dunne-drums
David Charles-percussion
Christian Diener-bass
David Mann-flute
Howard Levy-harmonica
Christina Loeb-flute
Lizzy Loeb-flute
Chuck Loeb-guitars,keyboards,bass
19:39
293
Нет комментариев. Ваш будет первым!