Поиск

(Cool Jazz,Latin Jazz) Bob Kindred Quartet - Nights Of Boleros And Blues - 2007, FLAC (image+.cue), lossless

Треклист:
Bob Kindred Quartet - Nights Of Boleros And Blues (Venus Records)
Жанр: Cool Jazz,Latin Jazz
Год выпуска диска: 2007
Производитель диска: Japan
Аудио кодек: FLAC
Тип рипа: image+.cue
Битрейт аудио: lossless
Продолжительность: 56:08
Трэклист:
1. Dos Gardenias Two Gardenias
2. Que Te Pedi What I Asked You For
3. Taboo
4. Toda Una Vida All My Life
5. Angelitos Negros Little Black Angels
6. Obsesion
7. Alma Con Alma Soul To Soul
8. Estrellita Little Star
9. La Comparsa
10. La Mentira Yellow Days
Bob Kindred (tenor sax)
John di Martino (piano)
Boris Kozlov (bass)
Horacio "El Negro" Hernandez (drums)
 
LOG
Exact Audio Copy V0.99 prebeta 5 from 4. May 2009
EAC extraction logfile from 19. September 2009, 21:55
Bob Kindred Quartet / Nights of Boleros and Blues
Used drive : Optiarc DVD RW AD-7200S Adapter: 3 ID: 0
Read mode : Secure
Utilize accurate stream : Yes
Defeat audio cache : Yes
Make use of C2 pointers : No
Read offset correction : 48
Overread into Lead-In and Lead-Out : No
Fill up missing offset samples with silence : Yes
Delete leading and trailing silent blocks : No
Null samples used in CRC calculations : Yes
Used interface : Native Win32 interface for Win NT & 2000
Used output format : User Defined Encoder
Selected bitrate : 768 kBit/s
Quality : High
Add ID3 tag : No
Command line compressor : C:\Program Files\Exact Audio Copy\FLAC\FLAC.EXE
Additional command line options : -6 -V -T "ARTIST=%a" -T "TITLE=%t" -T "ALBUM=%g" -T "DATE=%y" -T "TRACKNUMBER=%n" -T "GENRE=%m" -T "COMMENT=%e" %s -o %d
TOC of the extracted CD
Track | Start | Length | Start sector | End sector
---------------------------------------------------------
1 | 0:00.00 | 5:41.00 | 0 | 25574
2 | 5:41.00 | 6:32.00 | 25575 | 54974
3 | 12:13.00 | 4:49.00 | 54975 | 76649
4 | 17:02.00 | 4:32.00 | 76650 | 97049
5 | 21:34.00 | 5:06.00 | 97050 | 119999
6 | 26:40.00 | 5:39.00 | 120000 | 145424
7 | 32:19.00 | 6:50.00 | 145425 | 176174
8 | 39:09.00 | 5:33.37 | 176175 | 201186
9 | 44:42.37 | 5:06.00 | 201187 | 224136
10 | 49:48.37 | 6:20.16 | 224137 | 252652
Range status and errors
Selected range
Filename C:\rfccbh\Nights of Boleros and Blues\Bob Kindred Quartet - Nights of Boleros and Blues.wav
Peak level 99.1 %
Range quality 100.0 %
Test CRC 3389D7E1
Copy CRC 3389D7E1
Copy OK
No errors occurred
AccurateRip summary
Track 1 not present in database
Track 2 not present in database
Track 3 not present in database
Track 4 not present in database
Track 5 not present in database
Track 6 not present in database
Track 7 not present in database
Track 8 not present in database
Track 9 not present in database
Track 10 not present in database
None of the tracks are present in the AccurateRip database
End of status report
 
TAU
 
SPECTR
08:05
274
Нет комментариев. Ваш будет первым!