Поиск

(Bossa Nova, Smooth Jazz, Crossover Jazz) Marchio Bossa - Дискография (7 Альбомов) - 2003-2012, FLAC (image+.cue), lossless

(Bossa Nova, Smooth Jazz, Crossover Jazz) Marchio Bossa - Дискография (7 Альбомов) - 2003-2012, FLAC (image+.cue), lossless
Треклист:


Жанр: Bossa Nova, Smooth Jazz, Crossover Jazz
Год выпуска диска: 2003-2012
Производитель диска: Italia
Аудио кодек: FLAC
Тип рипа: image+.cue
Битрейт аудио: lossless
Наличие сканов в содержимом раздачи: да



17 Мая 2015 года добавлен альбом:
2012 - Radio Bossa Channel
Желающие могут ознакомиться.
 
2003 - Italian Lounge Music - 41:55

01. Notte Di Samba (4:08)
02. Falsa Verita' (4:19)
03. Non Sei Ancora Qui (5:31)
04. Un Altro Mondo C'e' (3:56)
05. Come Un Ladro D'Amor (3:52)
06. Festa De Carnaval (4:14)
07. Non Ho Mail (4:08)
08. Niente Piu' Bugie (4:49)
09. Momenti Che Vivro' (2:26)
10. E Un Giorno (4:30)

 
~ЕАС~
Exact Audio Copy V1.0 beta 3 from 29. August 2011
Отчёт EAC об извлечении, выполненном 9. марта 2015, 20:55
Marchio Bossa / Italian Lounge Music
Дисковод: PLEXTOR DVDR PX-880SA Adapter: 1 ID: 0
Режим чтения : Достоверность
Использование точного потока : Да
Отключение кэша аудио : Да
Использование указателей C2 : Нет
Коррекция смещения при чтении : 6
Способность читать области Lead-in и Lead-out : Нет
Заполнение пропущенных сэмплов тишиной : Да
Удаление блоков с тишиной в начале и конце : Нет
При вычислениях CRC использовались нулевые сэмплы : Да
Интерфейс : Установленный внешний ASPI-интерфейс
Выходной формат : Пользовательский кодировщик
Выбранный битрейт : 1024 kBit/s
Качество : Высокий
Добавление ID3-тега : Нет
Утилита сжатия : C:\Program Files\Exact Audio Copy\FLAC\FLAC.EXE
Дополнительные параметры : -10 -V -T "ARTIST=%artist%" -T "ALBUM=%albumtitle%" -T "DATE=%year%" -T "GENRE=%genre%" -T "COMMENT=ripped by izia1956" %source%
TOC извлечённого CD
Трек | Старт | Длительность | Начальный сектор | Конечный сектор
---------------------------------------------------------------------
1 | 0:00.00 | 4:08.27 | 0 | 18626
2 | 4:08.27 | 4:19.32 | 18627 | 38083
3 | 8:27.59 | 5:31.08 | 38084 | 62916
4 | 13:58.67 | 3:56.15 | 62917 | 80631
5 | 17:55.07 | 3:52.13 | 80632 | 98044
6 | 21:47.20 | 4:14.01 | 98045 | 117095
7 | 26:01.21 | 4:08.01 | 117096 | 135696
8 | 30:09.22 | 4:49.62 | 135697 | 157433
9 | 34:59.09 | 2:26.01 | 157434 | 168384
10 | 37:25.10 | 4:30.19 | 168385 | 188653
Характеристики диапазона извлечения и сообщения об ошибках
Выбранный диапазон
Имя файла D:\BitComet\Marchio Bossa\2003 - Italian Lounge Music\Marchio Bossa - Italian Lounge Music.wav
Пиковый уровень 99.9 %
Скорость извлечения 2.8 X
Качество диапазона 100.0 %
CRC теста BFFBA997
CRC копии BFFBA997
Копирование... OK
Ошибок не произошло
AccurateRip: сводка
Трек 1 : извлечено точно (доверие 1) [48C9A909] (AR v1)
Трек 2 : извлечено точно (доверие 1) [4C44A02C] (AR v1)
Трек 3 : извлечено точно (доверие 1) [1C85EB8A] (AR v1)
Трек 4 : извлечено точно (доверие 1) [5B2DBDAD] (AR v1)
Трек 5 : извлечено точно (доверие 1) [A63DE6CA] (AR v1)
Трек 6 : извлечено точно (доверие 1) [624C967E] (AR v1)
Трек 7 : извлечено точно (доверие 1) [4A16F406] (AR v1)
Трек 8 : извлечено точно (доверие 1) [846C2434] (AR v1)
Трек 9 : извлечено точно (доверие 1) [A544DFC3] (AR v1)
Трек 10 : извлечено точно (доверие 1) [3E2AD0E6] (AR v1)
Все треки извлечены точно
Конец отчёта
==== Контрольная сумма отчёта ADFCF95E76A8392A2F90EEBEDC67C47EC6609A34F09EE42F16DD42B25A7E910F ====
 
Содержание индексной карты (.CUE)
REM GENRE "Lounge, Bossa Nova"
REM DATE 2003
REM DISCID 6C09D30A
REM COMMENT "ExactAudioCopy v1.0b3"
PERFORMER "Marchio Bossa"
TITLE "Italian Lounge Music"
FILE "Marchio Bossa - Italian Lounge Music.flac" WAVE
TRACK 01 AUDIO
TITLE "Notte Di Samba"
PERFORMER "Marchio Bossa"
INDEX 01 00:00:00
TRACK 02 AUDIO
TITLE "Falsa Verita'"
PERFORMER "Marchio Bossa"
INDEX 00 04:06:27
INDEX 01 04:08:27
TRACK 03 AUDIO
TITLE "Non Sei Ancora Qui"
PERFORMER "Marchio Bossa"
INDEX 00 08:25:59
INDEX 01 08:27:59
TRACK 04 AUDIO
TITLE "Un Altro Mondo C'e'"
PERFORMER "Marchio Bossa"
INDEX 00 13:56:67
INDEX 01 13:58:67
TRACK 05 AUDIO
TITLE "Come Un Ladro D'Amor "
PERFORMER "Marchio Bossa"
INDEX 00 17:53:07
INDEX 01 17:55:07
TRACK 06 AUDIO
TITLE "Festa De Carnaval"
PERFORMER "Marchio Bossa"
INDEX 00 21:45:20
INDEX 01 21:47:20
TRACK 07 AUDIO
TITLE "Non Ho Mail"
PERFORMER "Marchio Bossa"
INDEX 00 25:59:21
INDEX 01 26:01:21
TRACK 08 AUDIO
TITLE "Niente Piu' Bugie"
PERFORMER "Marchio Bossa"
INDEX 00 30:07:22
INDEX 01 30:09:22
TRACK 09 AUDIO
TITLE "Momenti Che Vivro'"
PERFORMER "Marchio Bossa"
INDEX 00 34:57:09
INDEX 01 34:59:09
TRACK 10 AUDIO
TITLE "E Un Giorno"
PERFORMER "Marchio Bossa"
INDEX 00 37:23:10
INDEX 01 37:25:10

 
2004 - No Bossa No Party - 50:44

01. Luci (4:23)
02. Se ritornero (4:41)
03. Bossa per strada (3:14)
04. Con allegria (3:04)
05. Nothing to lose(The party) (3:50)
06. Dipingi un sogno (3:37)
07. No bossa no party (4:17)
08. Ricomincero (4:59)
09. Jose (3:30)
10. L'intenzione del poeta (4:39)
11. Lontano (5:09)
12. E' tardi (4:15)

 
~ЕAC~
Exact Audio Copy V1.0 beta 3 from 29. August 2011
Отчёт EAC об извлечении, выполненном 10. марта 2015, 3:41
Marchio Bossa / No Bossa No Party
Дисковод: PLEXTOR DVDR PX-880SA Adapter: 1 ID: 0
Режим чтения : Достоверность
Использование точного потока : Да
Отключение кэша аудио : Да
Использование указателей C2 : Нет
Коррекция смещения при чтении : 6
Способность читать области Lead-in и Lead-out : Нет
Заполнение пропущенных сэмплов тишиной : Да
Удаление блоков с тишиной в начале и конце : Нет
При вычислениях CRC использовались нулевые сэмплы : Да
Интерфейс : Установленный внешний ASPI-интерфейс
Выходной формат : Пользовательский кодировщик
Выбранный битрейт : 1024 kBit/s
Качество : Высокий
Добавление ID3-тега : Нет
Утилита сжатия : C:\Program Files\Exact Audio Copy\FLAC\FLAC.EXE
Дополнительные параметры : -10 -V -T "ARTIST=%artist%" -T "ALBUM=%albumtitle%" -T "DATE=%year%" -T "GENRE=%genre%" -T "COMMENT=ripped by izia1956" %source%
TOC извлечённого CD
Трек | Старт | Длительность | Начальный сектор | Конечный сектор
---------------------------------------------------------------------
1 | 0:00.00 | 4:23.40 | 0 | 19764
2 | 4:23.40 | 4:41.46 | 19765 | 40885
3 | 9:05.11 | 3:14.51 | 40886 | 55486
4 | 12:19.62 | 4:04.29 | 55487 | 73815
5 | 16:24.16 | 3:50.56 | 73816 | 91121
6 | 20:14.72 | 3:37.40 | 91122 | 107436
7 | 23:52.37 | 4:17.06 | 107437 | 126717
8 | 28:09.43 | 4:59.72 | 126718 | 149214
9 | 33:09.40 | 3:30.60 | 149215 | 165024
10 | 36:40.25 | 4:39.20 | 165025 | 185969
11 | 41:19.45 | 5:09.55 | 185970 | 209199
12 | 46:29.25 | 4:15.35 | 209200 | 228359
Характеристики диапазона извлечения и сообщения об ошибках
Выбранный диапазон
Имя файла D:\BitComet\Marchio Bossa\2004 - No Bossa No Party\Marchio Bossa - No Bossa No Party.wav
Пиковый уровень 98.8 %
Скорость извлечения 2.8 X
Качество диапазона 99.9 %
CRC теста 08D4E11C
CRC копии 08D4E11C
Копирование... OK
Ошибок не произошло
AccurateRip: сводка
Трек 1 : извлечено точно (доверие 1) [7FADF6C9] (AR v1)
Трек 2 : извлечено точно (доверие 1) [19A3369E] (AR v1)
Трек 3 : извлечено точно (доверие 1) [B69202CF] (AR v1)
Трек 4 : извлечено точно (доверие 1) [B3F3FA3A] (AR v1)
Трек 5 : извлечено точно (доверие 1) [5E8B4E12] (AR v1)
Трек 6 : извлечено точно (доверие 1) [B4CE978F] (AR v1)
Трек 7 : извлечено точно (доверие 1) [B805FB31] (AR v1)
Трек 8 : извлечено точно (доверие 1) [A6848E68] (AR v1)
Трек 9 : извлечено точно (доверие 1) [A6CBB1FD] (AR v1)
Трек 10 : извлечено точно (доверие 1) [FBD4A06B] (AR v1)
Трек 11 : извлечено точно (доверие 1) [0CE6F378] (AR v1)
Трек 12 : извлечено точно (доверие 1) [3EC8FDF2] (AR v1)
Все треки извлечены точно
Конец отчёта
==== Контрольная сумма отчёта 50CC707D683BFF781A36387320277FD71883D64C0C1B3A7924893358F728999C ====
 
Содержание индексной карты (.CUE)
REM GENRE "Bossa Nova, Smooth Jazz"
REM DATE 2004
REM DISCID A50BE40C
REM COMMENT "ExactAudioCopy v1.0b3"
PERFORMER "Marchio Bossa"
TITLE "No Bossa No Party"
FILE "Marchio Bossa - No Bossa No Party.flac" WAVE
TRACK 01 AUDIO
TITLE "Luci"
PERFORMER "Marchio Bossa"
INDEX 01 00:00:00
TRACK 02 AUDIO
TITLE "Se Ritornerт"
PERFORMER "Marchio Bossa"
INDEX 00 04:21:40
INDEX 01 04:23:40
TRACK 03 AUDIO
TITLE "Bossa Per Strada"
PERFORMER "Marchio Bossa"
INDEX 00 09:03:11
INDEX 01 09:05:11
TRACK 04 AUDIO
TITLE "Con Allegria"
PERFORMER "Marchio Bossa"
INDEX 00 12:17:62
INDEX 01 12:19:62
TRACK 05 AUDIO
TITLE "Nothing To Lose"
PERFORMER "Marchio Bossa"
INDEX 00 16:22:16
INDEX 01 16:24:16
TRACK 06 AUDIO
TITLE "Dipingi Un Sogno"
PERFORMER "Marchio Bossa"
INDEX 00 20:12:72
INDEX 01 20:14:72
TRACK 07 AUDIO
TITLE "No Bossa No Party"
PERFORMER "Marchio Bossa"
INDEX 00 23:50:37
INDEX 01 23:52:37
TRACK 08 AUDIO
TITLE "Ricomincerт"
PERFORMER "Marchio Bossa"
INDEX 00 28:07:43
INDEX 01 28:09:43
TRACK 09 AUDIO
TITLE "Jose'"
PERFORMER "Marchio Bossa"
INDEX 00 33:07:40
INDEX 01 33:09:40
TRACK 10 AUDIO
TITLE "L'Intenzione Del Poeta"
PERFORMER "Marchio Bossa"
INDEX 00 36:38:25
INDEX 01 36:40:25
TRACK 11 AUDIO
TITLE "Lontano"
PERFORMER "Marchio Bossa"
INDEX 00 41:17:45
INDEX 01 41:19:45
TRACK 12 AUDIO
TITLE "E' Tardi"
PERFORMER "Marchio Bossa"
INDEX 00 46:27:25
INDEX 01 46:29:25

 
2006 - Fantasy - 47:20

01. Dolcemente (5:14)
02. Tempo ( 4:00)
03. Notte, Oramai (3:39)
04. Giorno Di Pioggia (3:42)
05. Fantasy (3:14)
06. Dov'è (4:13)
07. Afternoon (5:07)
08. Terra Do Amor (3:59)
09. C'est L'amour (2:49)
10. Bossa Luna (2:52)
11. Old Piano (2:44)

 
~ЕАС~
Exact Audio Copy V1.0 beta 3 from 29. August 2011
Отчёт EAC об извлечении, выполненном 10. марта 2015, 19:02
Marchio Bossa / Fantasy
Дисковод: PLEXTOR DVDR PX-880SA Adapter: 1 ID: 0
Режим чтения : Достоверность
Использование точного потока : Да
Отключение кэша аудио : Да
Использование указателей C2 : Нет
Коррекция смещения при чтении : 6
Способность читать области Lead-in и Lead-out : Нет
Заполнение пропущенных сэмплов тишиной : Да
Удаление блоков с тишиной в начале и конце : Нет
При вычислениях CRC использовались нулевые сэмплы : Да
Интерфейс : Установленный внешний ASPI-интерфейс
Выходной формат : Пользовательский кодировщик
Выбранный битрейт : 1024 kBit/s
Качество : Высокий
Добавление ID3-тега : Нет
Утилита сжатия : C:\Program Files\Exact Audio Copy\FLAC\FLAC.EXE
Дополнительные параметры : -10 -V -T "ARTIST=%artist%" -T "ALBUM=%albumtitle%" -T "DATE=%year%" -T "GENRE=%genre%" -T "COMMENT=ripped by izia1956" %source%
TOC извлечённого CD
Трек | Старт | Длительность | Начальный сектор | Конечный сектор
---------------------------------------------------------------------
1 | 0:00.00 | 5:16.69 | 0 | 23768
2 | 5:16.69 | 4:02.46 | 23769 | 41964
3 | 9:19.40 | 3:41.63 | 41965 | 58602
4 | 13:01.28 | 3:44.25 | 58603 | 75427
5 | 16:45.53 | 4:16.44 | 75428 | 94671
6 | 21:02.22 | 4:15.73 | 94672 | 113869
7 | 25:18.20 | 5:09.01 | 113870 | 137045
8 | 30:27.21 | 4:01.15 | 137046 | 155135
9 | 34:28.36 | 2:51.62 | 155136 | 168022
10 | 37:20.23 | 2:54.61 | 168023 | 181133
11 | 40:15.09 | 2:46.49 | 181134 | 193632
12 | 43:01.58 | 4:18.61 | 193633 | 213043
Характеристики диапазона извлечения и сообщения об ошибках
Выбранный диапазон
Имя файла D:\BitComet\Marchio Bossa\2006 - Fantasy\Marchio Bossa - Fantasy.wav
Пиковый уровень 98.8 %
Скорость извлечения 2.8 X
Качество диапазона 99.9 %
CRC теста 20329236
CRC копии 20329236
Копирование... OK
Ошибок не произошло
AccurateRip: сводка
Трек 1 : извлечено точно (доверие 1) [3A8D6B26] (AR v1)
Трек 2 : извлечено точно (доверие 1) [BED8CDBF] (AR v1)
Трек 3 : извлечено точно (доверие 1) [3E044CCC] (AR v1)
Трек 4 : извлечено точно (доверие 1) [E7F7B603] (AR v1)
Трек 5 : извлечено точно (доверие 1) [E62FED65] (AR v1)
Трек 6 : извлечено точно (доверие 1) [67C5A656] (AR v1)
Трек 7 : извлечено точно (доверие 1) [DB0DAD48] (AR v1)
Трек 8 : извлечено точно (доверие 1) [83A05E8C] (AR v1)
Трек 9 : извлечено точно (доверие 1) [EE03096F] (AR v1)
Трек 10 : извлечено точно (доверие 1) [144D70E1] (AR v1)
Трек 11 : извлечено точно (доверие 1) [0D0B62B5] (AR v1)
Трек 12 : извлечено точно (доверие 1) [5B65DA71] (AR v1)
Все треки извлечены точно
Конец отчёта
==== Контрольная сумма отчёта E2E2561529B4CD2B72F8821E2F2F754AC618582F22AEEA432E74F4DDBEC91FF8 ====
 
Содержание индексной карты (.CUE)
REM GENRE "Lounge, Bossa Nova"
REM DATE 2006
REM DISCID 900B180C
REM COMMENT "ExactAudioCopy v1.0b3"
PERFORMER "Marchio Bossa"
TITLE "Fantasy"
FILE "Marchio Bossa - Fantasy.flac" WAVE
TRACK 01 AUDIO
TITLE "Dolcemente"
PERFORMER "Marchio Bossa"
INDEX 01 00:00:00
TRACK 02 AUDIO
TITLE "Tempo"
PERFORMER "Marchio Bossa"
INDEX 00 05:14:69
INDEX 01 05:16:69
TRACK 03 AUDIO
TITLE "Notte, Oramai"
PERFORMER "Marchio Bossa"
INDEX 00 09:17:40
INDEX 01 09:19:40
TRACK 04 AUDIO
TITLE "Giorno Di Pioggia"
PERFORMER "Marchio Bossa"
INDEX 00 12:59:28
INDEX 01 13:01:28
TRACK 05 AUDIO
TITLE "Fantasy"
PERFORMER "Marchio Bossa"
INDEX 00 16:43:53
INDEX 01 16:45:53
TRACK 06 AUDIO
TITLE "Dov'e"
PERFORMER "Marchio Bossa"
INDEX 00 21:00:22
INDEX 01 21:02:22
TRACK 07 AUDIO
TITLE "Afternoon"
PERFORMER "Marchio Bossa"
INDEX 00 25:16:20
INDEX 01 25:18:20
TRACK 08 AUDIO
TITLE "Terra Do Amor"
PERFORMER "Marchio Bossa"
INDEX 00 30:25:21
INDEX 01 30:27:21
TRACK 09 AUDIO
TITLE "C'est L'Amour"
PERFORMER "Marchio Bossa"
INDEX 00 34:26:36
INDEX 01 34:28:36
TRACK 10 AUDIO
TITLE "Bossaluna"
PERFORMER "Marchio Bossa"
INDEX 00 37:18:23
INDEX 01 37:20:23
TRACK 11 AUDIO
TITLE "Old Piano"
PERFORMER "Marchio Bossa"
INDEX 00 40:13:09
INDEX 01 40:15:09
TRACK 12 AUDIO
TITLE "Sophie a Monmartre"
PERFORMER "Marchio Bossa"
INDEX 00 42:59:58
INDEX 01 43:01:58

 
2008 - Colorando - 56:04

01. Bossa che verra' (4:07)
02. Dimentica Paris (4:28)
03. That's the way of the world (4:44)
04. Amarti come vorrei (3:27)
05. Moon river (3:14)
06. Giorni (4:53)
07. Colorando (4:01)
08. Una note cosi' (5:15)
09. Risvegli (4:00)
10. A settembre (4:49)
11. Squardi (4:31)
12. Ma c'e' il sole (3:39)
13. Un po' di piu' (4:49)

 
~ЕАС~
Exact Audio Copy V1.0 beta 3 from 29. August 2011
Отчёт EAC об извлечении, выполненном 8. марта 2015, 9:58
Marchio Bossa / Colorando
Дисковод: PLEXTOR DVDR PX-880SA Adapter: 1 ID: 0
Режим чтения : Достоверность
Использование точного потока : Да
Отключение кэша аудио : Да
Использование указателей C2 : Нет
Коррекция смещения при чтении : 6
Способность читать области Lead-in и Lead-out : Нет
Заполнение пропущенных сэмплов тишиной : Да
Удаление блоков с тишиной в начале и конце : Нет
При вычислениях CRC использовались нулевые сэмплы : Да
Интерфейс : Установленный внешний ASPI-интерфейс
Выходной формат : Пользовательский кодировщик
Выбранный битрейт : 1024 kBit/s
Качество : Высокий
Добавление ID3-тега : Нет
Утилита сжатия : C:\Program Files\Exact Audio Copy\FLAC\FLAC.EXE
Дополнительные параметры : -10 -V -T "ARTIST=%artist%" -T "ALBUM=%albumtitle%" -T "DATE=%year%" -T "GENRE=%genre%" -T "COMMENT=ripped by izia1956" %source%
TOC извлечённого CD
Трек | Старт | Длительность | Начальный сектор | Конечный сектор
---------------------------------------------------------------------
1 | 0:00.00 | 4:07.47 | 0 | 18571
2 | 4:07.47 | 4:28.32 | 18572 | 38703
3 | 8:36.04 | 4:44.61 | 38704 | 60064
4 | 13:20.65 | 3:27.56 | 60065 | 75645
5 | 16:48.46 | 3:14.58 | 75646 | 90253
6 | 20:03.29 | 4:53.30 | 90254 | 112258
7 | 24:56.59 | 4:01.36 | 112259 | 130369
8 | 28:58.20 | 5:15.11 | 130370 | 154005
9 | 34:13.31 | 4:00.40 | 154006 | 172045
10 | 38:13.71 | 4:49.41 | 172046 | 193761
11 | 43:03.37 | 4:31.56 | 193762 | 214142
12 | 47:35.18 | 3:39.48 | 214143 | 230615
13 | 51:14.66 | 4:49.74 | 230616 | 252364
Характеристики диапазона извлечения и сообщения об ошибках
Выбранный диапазон
Имя файла D:\BitComet\Marchio Bossa\2008 - Cololrando\Marchio Bossa - Colorando.wav
Пиковый уровень 98.8 %
Скорость извлечения 2.9 X
Качество диапазона 100.0 %
CRC теста 63E519E8
CRC копии 63E519E8
Копирование... OK
Ошибок не произошло
AccurateRip: сводка
Трек 1 : извлечено точно (доверие 1) [7CDB4F54] (AR v1)
Трек 2 : извлечено точно (доверие 1) [86BB9527] (AR v1)
Трек 3 : извлечено точно (доверие 1) [A9657FBE] (AR v1)
Трек 4 : извлечено точно (доверие 1) [03256BCA] (AR v1)
Трек 5 : извлечено точно (доверие 1) [F9D5870B] (AR v1)
Трек 6 : извлечено точно (доверие 1) [1D49336C] (AR v1)
Трек 7 : извлечено точно (доверие 1) [20923519] (AR v1)
Трек 8 : извлечено точно (доверие 1) [D2B3A335] (AR v1)
Трек 9 : извлечено точно (доверие 1) [D5739555] (AR v1)
Трек 10 : извлечено точно (доверие 1) [2F2214A9] (AR v1)
Трек 11 : извлечено точно (доверие 1) [EB59B6E4] (AR v1)
Трек 12 : извлечено точно (доверие 1) [9B0884DB] (AR v1)
Трек 13 : извлечено точно (доверие 1) [20F49A4C] (AR v1)
Все треки извлечены точно
Конец отчёта
==== Контрольная сумма отчёта BC313F164D221A1CD445A5467D772E9BD88C54542AA8AD3BFCCA0074F3BA8E34 ====
 
Содержание индексной карты (.CUE)
REM GENRE "Bossa Nova, Latin Jazz"
REM DATE 2008
REM DISCID AD0D240D
REM COMMENT "ExactAudioCopy v1.0b3"
PERFORMER "Marchio Bossa"
TITLE "Colorando"
FILE "Marchio Bossa - Colorando.flac" WAVE
TRACK 01 AUDIO
TITLE "Bossa Che Verrа"
PERFORMER "Marchio Bossa"
INDEX 01 00:00:00
TRACK 02 AUDIO
TITLE "Dimentica Paris"
PERFORMER "Marchio Bossa"
INDEX 00 04:05:47
INDEX 01 04:07:47
TRACK 03 AUDIO
TITLE "That's The Way Of The World"
PERFORMER "Marchio Bossa"
INDEX 00 08:34:04
INDEX 01 08:36:04
TRACK 04 AUDIO
TITLE "Amarti Come Vorrei"
PERFORMER "Marchio Bossa"
INDEX 00 13:18:65
INDEX 01 13:20:65
TRACK 05 AUDIO
TITLE "Moonriver"
PERFORMER "Marchio Bossa"
INDEX 00 16:46:46
INDEX 01 16:48:46
TRACK 06 AUDIO
TITLE "Giorni"
PERFORMER "Marchio Bossa"
INDEX 00 20:01:29
INDEX 01 20:03:29
TRACK 07 AUDIO
TITLE "Colorando"
PERFORMER "Marchio Bossa"
INDEX 00 24:54:59
INDEX 01 24:56:59
TRACK 08 AUDIO
TITLE "Una Notte Cosм"
PERFORMER "Marchio Bossa"
INDEX 00 28:56:20
INDEX 01 28:58:20
TRACK 09 AUDIO
TITLE "Risvegli"
PERFORMER "Marchio Bossa"
INDEX 00 34:11:31
INDEX 01 34:13:31
TRACK 10 AUDIO
TITLE "A Settembre"
PERFORMER "Marchio Bossa"
INDEX 00 38:11:71
INDEX 01 38:13:71
TRACK 11 AUDIO
TITLE "Sguardi"
PERFORMER "Marchio Bossa"
INDEX 00 43:01:37
INDEX 01 43:03:37
TRACK 12 AUDIO
TITLE "Ma c'e' il sole"
PERFORMER "Marchio Bossa"
INDEX 00 47:33:18
INDEX 01 47:35:18
TRACK 13 AUDIO
TITLE "Un po' di piu'"
PERFORMER "Marchio Bossa"
INDEX 00 51:12:66
INDEX 01 51:14:66

 
2009 - The Very Best Of Italian Lounge Music - 71:06

01. Luci (4:23)
02. Sogno e pioggia (3:33)
03. Fantasy (4:15)
04. Bossa che verra (4:07)
05. Falsa verita (4:19)
06. No bossa no party (4:17)
07. Dolcemente (5:16)
08. Dimentica Paris (4:28)
09. E un giorno (4:31)
10. Bossa per strada (3:14)
11. Sophie a Montmartre (4:16)
12. That's the way of the world (4:44)
13. Non sei ancora qui (5:30)
14. Se ritornero (4:41)
15. Dov'e (4:14)
16. Una notte cosi (5:12)

 
~ЕАС~
Exact Audio Copy V1.0 beta 3 from 29. August 2011
Отчёт EAC об извлечении, выполненном 9. марта 2015, 3:37
Marchio Bossa / The Best of Italian Lounge Music
Дисковод: PLEXTOR DVDR PX-880SA Adapter: 1 ID: 0
Режим чтения : Достоверность
Использование точного потока : Да
Отключение кэша аудио : Да
Использование указателей C2 : Нет
Коррекция смещения при чтении : 6
Способность читать области Lead-in и Lead-out : Нет
Заполнение пропущенных сэмплов тишиной : Да
Удаление блоков с тишиной в начале и конце : Нет
При вычислениях CRC использовались нулевые сэмплы : Да
Интерфейс : Установленный внешний ASPI-интерфейс
Выходной формат : Пользовательский кодировщик
Выбранный битрейт : 1024 kBit/s
Качество : Высокий
Добавление ID3-тега : Нет
Утилита сжатия : C:\Program Files\Exact Audio Copy\FLAC\FLAC.EXE
Дополнительные параметры : -10 -V -T "ARTIST=%artist%" -T "ALBUM=%albumtitle%" -T "DATE=%year%" -T "GENRE=%genre%" -T "COMMENT=ripped by izia1956" %source%
TOC извлечённого CD
Трек | Старт | Длительность | Начальный сектор | Конечный сектор
---------------------------------------------------------------------
1 | 0:00.00 | 4:23.33 | 0 | 19757
2 | 4:23.33 | 3:33.36 | 19758 | 35768
3 | 7:56.69 | 4:15.32 | 35769 | 54925
4 | 12:12.26 | 4:07.29 | 54926 | 73479
5 | 16:19.55 | 4:19.21 | 73480 | 92925
6 | 20:39.01 | 4:17.02 | 92926 | 112202
7 | 24:56.03 | 5:16.62 | 112203 | 135964
8 | 30:12.65 | 4:28.32 | 135965 | 156096
9 | 34:41.22 | 4:31.64 | 156097 | 176485
10 | 39:13.11 | 3:14.24 | 176486 | 191059
11 | 42:27.35 | 4:16.15 | 191060 | 210274
12 | 46:43.50 | 4:44.07 | 210275 | 231581
13 | 51:27.57 | 5:30.08 | 231582 | 256339
14 | 56:57.65 | 4:41.33 | 256340 | 277447
15 | 61:39.23 | 4:14.21 | 277448 | 296518
16 | 65:53.44 | 5:12.72 | 296519 | 319990
Характеристики диапазона извлечения и сообщения об ошибках
Выбранный диапазон
Имя файла D:\BitComet\Marchio Bossa\2009 - The Very Best Of Italian Longe Music\Marchio Bossa - The Best of Italian Lounge Music.wav
Пиковый уровень 100.0 %
Скорость извлечения 2.9 X
Качество диапазона 99.9 %
CRC теста C24696A1
CRC копии C24696A1
Копирование... OK
Ошибок не произошло
AccurateRip: сводка
Трек 1 : извлечено точно (доверие 1) [F9CCF805] (AR v1)
Трек 2 : извлечено точно (доверие 1) [3AC39017] (AR v1)
Трек 3 : извлечено точно (доверие 1) [3C941CD6] (AR v1)
Трек 4 : извлечено точно (доверие 1) [564BD0EE] (AR v1)
Трек 5 : извлечено точно (доверие 1) [D674B0BD] (AR v1)
Трек 6 : извлечено точно (доверие 1) [BCA7214F] (AR v1)
Трек 7 : извлечено точно (доверие 1) [5670C828] (AR v1)
Трек 8 : извлечено точно (доверие 1) [505EBA0A] (AR v1)
Трек 9 : извлечено точно (доверие 1) [58437B0B] (AR v1)
Трек 10 : извлечено точно (доверие 1) [C8BD7B6C] (AR v1)
Трек 11 : извлечено точно (доверие 1) [019B1D0D] (AR v1)
Трек 12 : извлечено точно (доверие 1) [6B6BA17E] (AR v1)
Трек 13 : извлечено точно (доверие 1) [58C425E9] (AR v1)
Трек 14 : извлечено точно (доверие 1) [B304D72E] (AR v1)
Трек 15 : извлечено точно (доверие 1) [50E42A28] (AR v1)
Трек 16 : извлечено точно (доверие 1) [2BFAF179] (AR v1)
Все треки извлечены точно
Конец отчёта
==== Контрольная сумма отчёта C61D1D43C373D859560B55368FBBF74C3FD18FE85157914C13B3D2B35717CB79 ====
 
Содержание индексной карты (.CUE)
REM GENRE "Bossa Nova"
REM DATE 2009
REM DISCID F310AA10
REM COMMENT "ExactAudioCopy v1.0b3"
PERFORMER "Marchio Bossa"
TITLE "The Best of Italian Lounge Music"
FILE "Marchio Bossa - The Best of Italian Lounge Music.flac" WAVE
TRACK 01 AUDIO
TITLE "Luci"
PERFORMER "Marchio Bossa"
INDEX 01 00:00:00
TRACK 02 AUDIO
TITLE "Sogno e Pioggia"
PERFORMER "Marchio Bossa"
INDEX 00 04:21:33
INDEX 01 04:23:33
TRACK 03 AUDIO
TITLE "Fantasy"
PERFORMER "Marchio Bossa"
INDEX 00 07:54:69
INDEX 01 07:56:69
TRACK 04 AUDIO
TITLE "Bossa Che Verrа"
PERFORMER "Marchio Bossa"
INDEX 00 12:10:26
INDEX 01 12:12:26
TRACK 05 AUDIO
TITLE "Falsa Veritа"
PERFORMER "Marchio Bossa"
INDEX 00 16:17:55
INDEX 01 16:19:55
TRACK 06 AUDIO
TITLE "No Bossa No Party"
PERFORMER "Marchio Bossa"
INDEX 00 20:37:01
INDEX 01 20:39:01
TRACK 07 AUDIO
TITLE "Dolcemente"
PERFORMER "Marchio Bossa"
INDEX 00 24:54:03
INDEX 01 24:56:03
TRACK 08 AUDIO
TITLE "Dimentica Paris"
PERFORMER "Marchio Bossa"
INDEX 00 30:10:65
INDEX 01 30:12:65
TRACK 09 AUDIO
TITLE "E Un Giorno"
PERFORMER "Marchio Bossa"
INDEX 00 34:39:22
INDEX 01 34:41:22
TRACK 10 AUDIO
TITLE "Bossa per Strada"
PERFORMER "Marchio Bossa"
INDEX 00 39:11:11
INDEX 01 39:13:11
TRACK 11 AUDIO
TITLE "Sophie A Monmartre"
PERFORMER "Marchio Bossa"
INDEX 00 42:25:35
INDEX 01 42:27:35
TRACK 12 AUDIO
TITLE "That's The Way Of The World"
PERFORMER "Marchio Bossa"
INDEX 00 46:41:50
INDEX 01 46:43:50
TRACK 13 AUDIO
TITLE "Non sei Ancora Qui"
PERFORMER "Marchio Bossa"
INDEX 00 51:25:57
INDEX 01 51:27:57
TRACK 14 AUDIO
TITLE "Se Ritornerт"
PERFORMER "Marchio Bossa"
INDEX 00 56:55:65
INDEX 01 56:57:65
TRACK 15 AUDIO
TITLE "Dov'e"
PERFORMER "Marchio Bossa"
INDEX 00 61:37:23
INDEX 01 61:39:23
TRACK 16 AUDIO
TITLE "Una Notte Cosi"
PERFORMER "Marchio Bossa"
INDEX 00 65:51:44
INDEX 01 65:53:44

 
2010 - Italian Bossa Bar - 51:37

01. E Questo Samba Va... (5:36)
02. Your Smile (4:09)
03. Goodbye My Friend (3:47)
04. Ama (3:55)
05. Windmills Of Your Mind (3:57)
06. Morena (4:17)
07. Cafe Bossa (4:39)
08. Uma Batida De Amor (3:22)
09. Case Vuote (4:23)
10. Vorrei (4:21)
11. Suoni D'acqua (3:38)
12. Nascita Di Un Nuovo Amore (5:27)

 
~EAC~
Exact Audio Copy V1.0 beta 3 from 29. August 2011
Отчёт EAC об извлечении, выполненном 8. марта 2015, 11:07
Marchio Bossa / Italian Bossa Bar
Дисковод: PLEXTOR DVDR PX-880SA Adapter: 1 ID: 0
Режим чтения : Достоверность
Использование точного потока : Да
Отключение кэша аудио : Да
Использование указателей C2 : Нет
Коррекция смещения при чтении : 6
Способность читать области Lead-in и Lead-out : Нет
Заполнение пропущенных сэмплов тишиной : Да
Удаление блоков с тишиной в начале и конце : Нет
При вычислениях CRC использовались нулевые сэмплы : Да
Интерфейс : Установленный внешний ASPI-интерфейс
Выходной формат : Пользовательский кодировщик
Выбранный битрейт : 1024 kBit/s
Качество : Высокий
Добавление ID3-тега : Нет
Утилита сжатия : C:\Program Files\Exact Audio Copy\FLAC\FLAC.EXE
Дополнительные параметры : -10 -V -T "ARTIST=%artist%" -T "ALBUM=%albumtitle%" -T "DATE=%year%" -T "GENRE=%genre%" -T "COMMENT=ripped by izia1956" %source%
TOC извлечённого CD
Трек | Старт | Длительность | Начальный сектор | Конечный сектор
---------------------------------------------------------------------
1 | 0:00.00 | 5:36.13 | 0 | 25212
2 | 5:36.13 | 4:09.09 | 25213 | 43896
3 | 9:45.22 | 3:47.48 | 43897 | 60969
4 | 13:32.70 | 3:55.31 | 60970 | 78625
5 | 17:28.26 | 3:57.35 | 78626 | 96435
6 | 21:25.61 | 4:17.69 | 96436 | 115779
7 | 25:43.55 | 4:39.01 | 115780 | 136705
8 | 30:22.56 | 3:22.56 | 136706 | 151911
9 | 33:45.37 | 4:23.61 | 151912 | 171697
10 | 38:09.23 | 4:21.55 | 171698 | 191327
11 | 42:31.03 | 3:38.56 | 191328 | 207733
12 | 46:09.59 | 5:27.52 | 207734 | 232310
Характеристики диапазона извлечения и сообщения об ошибках
Выбранный диапазон
Имя файла D:\BitComet\Marchio Bossa\2010 - Italian Bossa Bar\Marchio Bossa - Italian Bossa Bar.wav
Пиковый уровень 99.7 %
Скорость извлечения 2.6 X
Качество диапазона 100.0 %
CRC теста 07B5BD4D
CRC копии 07B5BD4D
Копирование... OK
Ошибок не произошло
AccurateRip: сводка
Трек 1 : извлечено точно (доверие 1) [1A731A8D] (AR v1)
Трек 2 : извлечено точно (доверие 1) [45EB37CF] (AR v1)
Трек 3 : извлечено точно (доверие 1) [AF393D49] (AR v1)
Трек 4 : извлечено точно (доверие 1) [1F64BEA9] (AR v1)
Трек 5 : извлечено точно (доверие 1) [6166A7B3] (AR v1)
Трек 6 : извлечено точно (доверие 1) [4F3B5E6F] (AR v1)
Трек 7 : извлечено точно (доверие 1) [1FB3B2E2] (AR v1)
Трек 8 : извлечено точно (доверие 1) [11CE715F] (AR v1)
Трек 9 : извлечено точно (доверие 1) [EE3B76F2] (AR v1)
Трек 10 : извлечено точно (доверие 1) [2B678DA6] (AR v1)
Трек 11 : извлечено точно (доверие 1) [B2ED8CB5] (AR v1)
Трек 12 : извлечено точно (доверие 1) [9BA7A93F] (AR v1)
Все треки извлечены точно
Конец отчёта
==== Контрольная сумма отчёта A7E6530133A40161E07478862FD048139A682F6D4BAF932FD4EA0CFE82E6E9ED ====
 
Содержание индексной карты (.CUE)
REM GENRE "Bossa Nova"
REM DATE 2010
REM DISCID A00C190C
REM COMMENT "ExactAudioCopy v1.0b3"
PERFORMER "Marchio Bossa"
TITLE "Italian Bossa Bar"
FILE "Marchio Bossa - Italian Bossa Bar.flac" WAVE
TRACK 01 AUDIO
TITLE "E Questo Samba Va..."
PERFORMER "Marchio Bossa"
INDEX 01 00:00:00
TRACK 02 AUDIO
TITLE "Your Smile"
PERFORMER "Marchio Bossa"
INDEX 01 05:36:13
TRACK 03 AUDIO
TITLE "Goodbye My Friend"
PERFORMER "Marchio Bossa"
INDEX 01 09:45:22
TRACK 04 AUDIO
TITLE "Ama"
PERFORMER "Marchio Bossa"
INDEX 01 13:32:70
TRACK 05 AUDIO
TITLE "Windmills Of Your Mind"
PERFORMER "Marchio Bossa"
INDEX 01 17:28:26
TRACK 06 AUDIO
TITLE "Morena"
PERFORMER "Marchio Bossa"
INDEX 01 21:25:61
TRACK 07 AUDIO
TITLE "CafЏ Bossa"
PERFORMER "Marchio Bossa"
INDEX 01 25:43:55
TRACK 08 AUDIO
TITLE "Uma Batida De Amor"
PERFORMER "Marchio Bossa"
INDEX 01 30:22:56
TRACK 09 AUDIO
TITLE "Case Vuote"
PERFORMER "Marchio Bossa"
INDEX 01 33:45:37
TRACK 10 AUDIO
TITLE "Vorrei"
PERFORMER "Marchio Bossa"
INDEX 01 38:09:23
TRACK 11 AUDIO
TITLE "Suoni D'Acqua"
PERFORMER "Marchio Bossa"
INDEX 01 42:31:03
TRACK 12 AUDIO
TITLE "Nascita Di Un Nuovo Amore"
PERFORMER "Marchio Bossa"
INDEX 01 46:09:59

 
2012 - Radio Bossa Channel - 48:47

01. People Love The Music (3:52)
02. Sei (5:11)
03. Radio Bossa Channel (5:01)
04. Meu Amor (5:17)
05. Bombagem (3:23)
06. A Rilento (3:34)
07. Maravilha (3:45)
08. Une Petite Histoire D'amour (4:12)
09. Resta Qui (4:09)
10. Piccole Ombre (2:58)
11. Solo Cosi' (3:04)
12. Vecchio Poster (4:14)

 
~EAC~
Exact Audio Copy V1.0 beta 3 from 29. August 2011
Отчёт EAC об извлечении, выполненном 17. мая 2015, 10:01
Marchio Bossa / Radio Bossa Channel
Дисковод: PLEXTOR DVDR PX-880SA Adapter: 1 ID: 0
Режим чтения : Достоверность
Использование точного потока : Да
Отключение кэша аудио : Да
Использование указателей C2 : Нет
Коррекция смещения при чтении : 6
Способность читать области Lead-in и Lead-out : Нет
Заполнение пропущенных сэмплов тишиной : Да
Удаление блоков с тишиной в начале и конце : Нет
При вычислениях CRC использовались нулевые сэмплы : Да
Интерфейс : Установленный внешний ASPI-интерфейс
Выходной формат : Пользовательский кодировщик
Выбранный битрейт : 1024 kBit/s
Качество : Высокий
Добавление ID3-тега : Нет
Утилита сжатия : C:\Program Files\Exact Audio Copy\FLAC\FLAC.EXE
Дополнительные параметры : -10 -V -T "ARTIST=%artist%" -T "ALBUM=%albumtitle%" -T "DATE=%year%" -T "GENRE=%genre%" -T "COMMENT=ripped by izia1956" %source%
TOC извлечённого CD
Трек | Старт | Длительность | Начальный сектор | Конечный сектор
---------------------------------------------------------------------
1 | 0:00.00 | 3:52.58 | 0 | 17457
2 | 3:52.58 | 5:11.73 | 17458 | 40855
3 | 9:04.56 | 5:01.65 | 40856 | 63495
4 | 14:06.46 | 5:17.05 | 63496 | 87275
5 | 19:23.51 | 3:23.68 | 87276 | 102568
6 | 22:47.44 | 3:34.04 | 102569 | 118622
7 | 26:21.48 | 3:45.71 | 118623 | 135568
8 | 30:07.44 | 4:12.39 | 135569 | 154507
9 | 34:20.08 | 4:09.66 | 154508 | 173248
10 | 38:29.74 | 2:58.17 | 173249 | 186615
11 | 41:28.16 | 3:04.53 | 186616 | 200468
12 | 44:32.69 | 4:14.19 | 200469 | 219537
Характеристики диапазона извлечения и сообщения об ошибках
Выбранный диапазон
Имя файла D:\BitComet\Marchio Bossa\2012 - Radio Bossa Channel\Marchio Bossa - Radio Bossa Channel.wav
Пиковый уровень 98.7 %
Скорость извлечения 2.6 X
Качество диапазона 100.0 %
CRC теста D261A11B
CRC копии D261A11B
Копирование... OK
Ошибок не произошло
AccurateRip: сводка
Трек 1 : извлечено точно (доверие 1) [D4692D98] (AR v2)
Трек 2 : извлечено точно (доверие 1) [E79F1A6A] (AR v2)
Трек 3 : извлечено точно (доверие 1) [DEE2875E] (AR v2)
Трек 4 : извлечено точно (доверие 1) [C6F99043] (AR v2)
Трек 5 : извлечено точно (доверие 1) [3D9CB352] (AR v2)
Трек 6 : извлечено точно (доверие 1) [872E0D95] (AR v2)
Трек 7 : извлечено точно (доверие 1) [61DF9B59] (AR v2)
Трек 8 : извлечено точно (доверие 1) [59B54902] (AR v2)
Трек 9 : извлечено точно (доверие 1) [88953087] (AR v2)
Трек 10 : извлечено точно (доверие 1) [41F8302A] (AR v2)
Трек 11 : извлечено точно (доверие 1) [93FFCE9F] (AR v2)
Трек 12 : извлечено точно (доверие 1) [88807908] (AR v2)
Все треки извлечены точно
Конец отчёта
==== Контрольная сумма отчёта F8916C0AA27275C126EDF1740AE4753399F4E51023C26DEEA0BF0B8E58B68024 ====
 
Содержание индексной карты (.CUE)
REM GENRE "Bossa Nova, Latin Jazz"
REM DATE 2012
REM DISCID A40B6F0C
REM COMMENT "ExactAudioCopy v1.0b3"
PERFORMER "Marchio Bossa"
TITLE "Radio Bossa Channel"
FILE "Marchio Bossa - Radio Bossa Channel.flac" WAVE
TRACK 01 AUDIO
TITLE "People Love The Music"
PERFORMER "Marchio Bossa"
INDEX 01 00:00:00
TRACK 02 AUDIO
TITLE "Sei"
PERFORMER "Marchio Bossa"
INDEX 01 03:52:58
TRACK 03 AUDIO
TITLE "Radio Bossa Channel"
PERFORMER "Marchio Bossa"
INDEX 01 09:04:56
TRACK 04 AUDIO
TITLE "Meu Amor"
PERFORMER "Marchio Bossa"
INDEX 01 14:06:46
TRACK 05 AUDIO
TITLE "Bombagem"
PERFORMER "Marchio Bossa"
INDEX 01 19:23:51
TRACK 06 AUDIO
TITLE "A Rilento"
PERFORMER "Marchio Bossa"
INDEX 01 22:47:44
TRACK 07 AUDIO
TITLE "Maravilha"
PERFORMER "Marchio Bossa"
INDEX 01 26:21:48
TRACK 08 AUDIO
TITLE "Une Petite Histoire D'amour"
PERFORMER "Marchio Bossa"
INDEX 01 30:07:44
TRACK 09 AUDIO
TITLE "Resta Qui"
PERFORMER "Marchio Bossa"
INDEX 01 34:20:08
TRACK 10 AUDIO
TITLE "Piccole Ombre"
PERFORMER "Marchio Bossa"
INDEX 01 38:29:74
TRACK 11 AUDIO
TITLE "Solo Cosi'"
PERFORMER "Marchio Bossa"
INDEX 01 41:28:16
TRACK 12 AUDIO
TITLE "Vecchio Poster"
PERFORMER "Marchio Bossa"
INDEX 01 44:32:69

Доп. информация:
Marchio Bossa - Образовалась в 2001 году в Италии.
Любители хорошей музыки это для Вас!!!
Рип сделан собственноручно c оригинальных СД !!!
PS. Очень хотелось бы услышать Ваше мнение которое я очень ценю!!!
Релиз от ©СЁРФ-Маrаtones aka izia1956
09:06
307
Нет комментариев. Ваш будет первым!