Поиск

(Bossa Nova\Latin Jazz\Vocal Jazz) Jane Duboc - Sweet Lady Jane - 2002, FLAC (image+.cue), lossless

Треклист:
Jane Duboc - Sweet Lady Jane
Жанр: Bossa Nova\Latin Jazz\Vocal Jazz
Год выпуска диска: 2002
Производитель диска: China
Аудио кодек: FLAC
Тип рипа: image+.cue
Битрейт аудио: lossless
Продолжительность: 49:10
Трэклист:
1. Verуo
2. Por Causa De Vocъ
3. Pr'um Samba
4. If It's Magic
5. De Alma E Corpo
6. Blues Afins
7. It Might As Well Be Spring
8. Lady Jane
9. Pra Dizer Adeus
10. Evermore
11. Photograph
12. Don't Ever Go Away
 
LOG
Exact Audio Copy V0.99 prebeta 5 from 4. May 2009
EAC extraction logfile from 20. September 2009, 13:06
Jane Duboc / Sweet Lady Jane
Used drive : Optiarc DVD RW AD-7200S Adapter: 3 ID: 0
Read mode : Secure
Utilize accurate stream : Yes
Defeat audio cache : Yes
Make use of C2 pointers : No
Read offset correction : 48
Overread into Lead-In and Lead-Out : No
Fill up missing offset samples with silence : Yes
Delete leading and trailing silent blocks : No
Null samples used in CRC calculations : Yes
Used interface : Native Win32 interface for Win NT & 2000
Used output format : User Defined Encoder
Selected bitrate : 768 kBit/s
Quality : High
Add ID3 tag : No
Command line compressor : C:\Program Files\Exact Audio Copy\FLAC\FLAC.EXE
Additional command line options : -6 -V -T "ARTIST=%a" -T "TITLE=%t" -T "ALBUM=%g" -T "DATE=%y" -T "TRACKNUMBER=%n" -T "GENRE=%m" -T "COMMENT=%e" %s -o %d
TOC of the extracted CD
Track | Start | Length | Start sector | End sector
---------------------------------------------------------
1 | 0:00.00 | 4:46.58 | 0 | 21507
2 | 4:46.58 | 4:03.00 | 21508 | 39732
3 | 8:49.58 | 3:17.41 | 39733 | 54548
4 | 12:07.24 | 3:44.16 | 54549 | 71364
5 | 15:51.40 | 4:19.70 | 71365 | 90859
6 | 20:11.35 | 4:20.55 | 90860 | 110414
7 | 24:32.15 | 5:50.57 | 110415 | 136721
8 | 30:22.72 | 4:28.71 | 136722 | 156892
9 | 34:51.68 | 3:56.68 | 156893 | 174660
10 | 38:48.61 | 3:23.32 | 174661 | 189917
11 | 42:12.18 | 2:55.50 | 189918 | 203092
12 | 45:07.68 | 4:02.49 | 203093 | 221291
Range status and errors
Selected range
Filename C:\rfccbh\Jane Duboc - Sweet Lady Jane.wav
Peak level 99.4 %
Range quality 99.9 %
Test CRC D0E04702
Copy CRC D0E04702
Copy OK
No errors occurred
AccurateRip summary
Track 1 not present in database
Track 2 not present in database
Track 3 not present in database
Track 4 not present in database
Track 5 not present in database
Track 6 not present in database
Track 7 not present in database
Track 8 not present in database
Track 9 not present in database
Track 10 not present in database
Track 11 not present in database
Track 12 not present in database
None of the tracks are present in the AccurateRip database
End of status report
 
TAU
 
SPECTR
09:06
294
Нет комментариев. Ваш будет первым!