Поиск

(Bossa Nova\Latin Jazz\Vocal Jazz) Ana De Hollanda - Un Filme - 2001, FLAC (image+.cue), lossless

Треклист:
Ana De Hollanda - Un Filme
Жанр: Bossa Nova\Latin Jazz\Vocal Jazz
Год выпуска диска: 2001
Производитель диска: PRC
Аудио кодек: FLAC
Тип рипа: image+.cue
Битрейт аудио: lossless
Продолжительность: 43:01
Трэклист:
01. Um Filme [Jards Macale e Ana de Hollanda]
02. Mares [Maurэcio Carrilho e Paulo Cesar Pinheiro]
03. Depois de Tanto Amor [Paulinho da Viola]
04. Contra Mim [Kleber Costa e Ana de Hollanda]
05. Mais um Samba Popular [Noel Rosa e Vadico]
06. Engomadinho [Pedro Caetano e Claudionor Cruz]
07. Sem Maldade [Moacyr Luz e Aldir Blanc]
08. Girando Sob a Tempestade [Ana de Hollanda]
09. Marca [Sergio Santos e Paulo Cщsar Pinheiro]
10. Yes, Ze Manes [Guinga e Aldir Blanc]
11. Ele Nуo Sabe Danчar [A. Nogueira e Cristѓvуo de Alencar]
12. Que e Que Hс [Chico Cesar]
 
LOG
Exact Audio Copy V0.99 prebeta 5 from 4. May 2009
EAC extraction logfile from 19. September 2009, 19:46
Ana De Hollanda / Un Filme
Used drive : Optiarc DVD RW AD-7200S Adapter: 3 ID: 0
Read mode : Secure
Utilize accurate stream : Yes
Defeat audio cache : Yes
Make use of C2 pointers : No
Read offset correction : 48
Overread into Lead-In and Lead-Out : No
Fill up missing offset samples with silence : Yes
Delete leading and trailing silent blocks : No
Null samples used in CRC calculations : Yes
Used interface : Native Win32 interface for Win NT & 2000
Used output format : User Defined Encoder
Selected bitrate : 768 kBit/s
Quality : High
Add ID3 tag : No
Command line compressor : C:\Program Files\Exact Audio Copy\FLAC\FLAC.EXE
Additional command line options : -6 -V -T "ARTIST=%a" -T "TITLE=%t" -T "ALBUM=%g" -T "DATE=%y" -T "TRACKNUMBER=%n" -T "GENRE=%m" -T "COMMENT=%e" %s -o %d
TOC of the extracted CD
Track | Start | Length | Start sector | End sector
---------------------------------------------------------
1 | 0:00.00 | 4:23.53 | 0 | 19777
2 | 4:23.53 | 4:33.56 | 19778 | 40308
3 | 8:57.34 | 3:38.60 | 40309 | 56718
4 | 12:36.19 | 2:31.15 | 56719 | 68058
5 | 15:07.34 | 3:15.03 | 68059 | 82686
6 | 18:22.37 | 3:05.46 | 82687 | 96607
7 | 21:28.08 | 3:57.46 | 96608 | 114428
8 | 25:25.54 | 2:34.69 | 114429 | 126047
9 | 28:00.48 | 2:57.43 | 126048 | 139365
10 | 30:58.16 | 6:27.29 | 139366 | 168419
11 | 37:25.45 | 3:03.02 | 168420 | 182146
12 | 40:28.47 | 2:32.71 | 182147 | 193617
Range status and errors
Selected range
Filename C:\rfccbh\Un Filme\Ana De Hollanda - Un Filme.wav
Peak level 100.0 %
Range quality 99.9 %
Test CRC A6E03E92
Copy CRC A6E03E92
Copy OK
No errors occurred
AccurateRip summary
Track 1 not present in database
Track 2 not present in database
Track 3 not present in database
Track 4 not present in database
Track 5 cannot be verified as accurate (confidence 1) [E66AD40E], AccurateRip returned [D476AA97]
Track 6 not present in database
Track 7 not present in database
Track 8 not present in database
Track 9 not present in database
Track 10 not present in database
Track 11 not present in database
Track 12 not present in database
1 track(s) could not be verified as accurate
11 track(s) not present in the AccurateRip database
No tracks could be verified as accurate
You may have a different pressing from the one(s) in the database
End of status report
 
Spectr
 
Tau
 
Bio
Cresceu no Pacaembu (bairro de São Paulo). Filha da pianista Maria Amélia Alvim e do historiador Sergio Buarque de Holanda, cresceu numa casa frequentada pelos nomes mais expressivos da vida cultural e política do Brasil.
Estudou no Colégio Des Oiseaux. Aos 16 anos, estreou nos palcos no Teatro do Colégio Rio Branco, no show Primeira Audição, como integrante do conjunto Chico Buarque e as Quatro Mais, com seu irmão Chico, as irmãs Cristina e Maria do Carmo (Piií) e a amiga Helena Hungria, todas do mesmo colégio.
Em 1968, participou do III Festival Internacional da Canção, interpretando o frevo "Dança das Rosas". Em 1980, gravou o primeiro disco solo: "Ana de Hollanda", pelo selo Eldorado.
Ana participava das reuniões do bar Riviera, no centro de São Paulo, ponto de encontro de artistas e intelectuais. Foi nesta época que entrou para o Partido Comunista Brasileiro. No entanto, o nascimento dos filhos Sérgio e Ruth a impediram de dedicação maior à política (Fonte: Valor Econômico). Atualmente, Ana não é filiada a nenhum partido.
Em 1982, compôs e gravou o jingle "Acorda meu povo" para a campanha de Franco Montoro (PMDB), candidato ao governo de São Paulo.
De 1983 a 1985, Ana de Hollanda chefiou o setor musical do Centro Cultural São Paulo. Entre 1986 e 1988 foi secretária de Cultura do município de Osasco, na gestão de Humberto Parro (PMDB).
Depois de um ano de quimioterapia e radioterapia, curou-se de um câncer na região do mediastino, entre os pulmões. Curada, voltou a gravar. O segundo álbum solo, "Tão Simples", saiu pela MoviePlay em 1995.
Fez shows por todo o Brasil e também no Uruguai, em Angola e em Cuba, sempre com repertório da MPB.
De 2003 a 2007, dirigiu o Centro de Música da Funarte, durante a gestão do ator Antonio Grassi. Coordenou a Câmara Setorial de Cultura, reunindo representantes dos fóruns estaduais de música, entidades representativas da sociedade civil e setores do Poder Executivo. Segundo Grassi, todos os novos projetos musicais da Fundação, bem como o renascimento do Projeto Pixinguinha, foram de responsabildade de Ana.
Ana atuou como vocalista em discos de Toquinho, Vinicius de Moraes, Fafá de Belém e Tom Jobim. Trabalhou como atriz no espetáculo "Nunca te vi, sempre te amei", de Guto Maia.
Download available for power users only.
08:04
232
Нет комментариев. Ваш будет первым!