Поиск

(Brazilian Jazz/Bossa Nova) Ivan Lins - Um Novo Tempo - 1999, FLAC (image+.cue), lossless

(Brazilian Jazz/Bossa Nova) Ivan Lins - Um Novo Tempo - 1999, FLAC (image+.cue), lossless
Треклист:
Ivan Lins - Um Novo Tempo
Жанр: Brazilian Jazz / Bossa Nova
Год выпуска диска: 1999
Производитель диска: Abril Music (NovoDisc Manaus) - 1107019-2 - Brazil
Аудио кодек: FLAC
Тип рипа: image+.cue
Битрейт аудио: lossless
Продолжительность: 50:54
Трэклист:
1 - Um feliz natal (Feliz natividad)
2 - Noite feliz (Silent night)
3 - Festas
4 - Um natal brasileiro
5 - Ô de casa
6 - Boas festas
7 - Noite pra festejar
8 - Então é natal (Happy xmas) (Was Is over)
9 - Papai Noel de camiseta
10 - Bate o sino (Jingle bells)
11 - Um bom natal (O Tannembaum)
12 - Natal das crianças
13 - Véspera de natal
14 - Adeste fidelis
15 - Novo tempo
Доп. информация:
 
Biography
Ivan Guimarães Lins (born June 16, 1945) is a Brazilian musician. He has been an active performer and songwriter of Brazilian popular music (MPB) and jazz for over 30 years. His first hit, Madalena, was recorded by Elis Regina in 1970. Beyond his own performance of his compositions, Simone is his most notable and respected interpreter. His 1989 hit song "Love Dance" is one of the most re-recorded songs in musical history.
Testifying to Lins' importance as a composer is the frequency with which tribute albums and new covers of his compositions appear. His jazz classics have been recorded by many notable international artists including Sarah Vaughan, Ella Fitzgerald, Barbra Streisand, Quincy Jones, George Benson, The Manhattan Transfer, Diane Schuur, Carmen McRae, Nancy Wilson, Eliane Elias, Patti Austin, Toots Thielemans, Take 6, Lee Ritenour, David Benoit, Carlos do Carmo, Mark Murphy, Dave Grusin, Sérgio Mendes, Michael Bublé and countless others.
Ivan Lins was born in Rio de Janeiro. He spent several years in Boston, Massachusetts, while his father, a Naval Engineer, continued his graduate studies at M.I.T., studied at the Military College in Rio. He later received a degree in industrial chemical engineering from the Federal University of Rio de Janeiro. He considered a career in volleyball before discovering his considerable musical talent.
Ivan Lins has released albums regularly and even penned several standards, such as Love Dance, Começar de Novo (the English version being The Island, with lyrics by Alan and Marilyn Bergman), and Velas Içadas, which have made their way north into the American jazz lexicon. He recorded for Reprise/Warner Bros. Records in the early 1990s.
In the mid eighties Lins recorded a jazz fusion album with Dave Grusin and Lee Ritenour titled "Harlequin". It is a critical and commercial success.
Lins also composed the soundtrack for the Brazilian film Dois Córregos.
Mention should be made of Lins' longtime composing partner, Vitor Martins. Their songs typically feature lush harmony with a distinctive jazz sensibility. One signature voicing he often employs in his own performances is the delayed addition of a #11 to a sus13 chord, or the delayed addition of a b9 to a sus13 chord.
Ivan Lins appeared as guest performer on the albums Dois Mundos (1998) and Recorded in Rio (2003) of the Dutch artist Josee Koning. Also he appeared on the album Call Me Irresponsible (2007) of the artist Michael Bublé.
Jazz reporter and music critic David Adler[1] reported Lins’ October 2000 Carnegie Hall concert performance and tribute to him. The event corresponded with the tribute album titled A Love Affair, released by Telarc Records. Headline performers from diverse genres participated in celebrating the man and his music on the recording and in the world-class performance hall, a noteworthy accomplishment in the history of any musician.
Lins maintains an active touring schedule, including a 2003 appearance at The Blue Note in New York City. In May, 2008, he returned to New York, performing with Rosa Passos at Jazz at Lincoln Center.
Ivan Lins is a political artist and musical icon in his country.
 
EAC Log
Exact Audio Copy V0.99 prebeta 5 from 4. May 2009
EAC extraction logfile from 18. September 2009, 21:08
Ivan Lins / Um Novo Tempo
Used drive : HL-DT-STDVDRAM GH20NS15 Adapter: 0 ID: 0
Read mode : Secure
Utilize accurate stream : Yes
Defeat audio cache : Yes
Make use of C2 pointers : No
Read offset correction : 667
Overread into Lead-In and Lead-Out : No
Fill up missing offset samples with silence : Yes
Delete leading and trailing silent blocks : No
Null samples used in CRC calculations : Yes
Used interface : Installed external ASPI interface
Used output format : User Defined Encoder
Selected bitrate : 1024 kBit/s
Quality : High
Add ID3 tag : No
Command line compressor : C:\Program Files\Exact Audio Copy\Flac\flac.exe
Additional command line options : -8 -A tukey(0.25) -A gauss(0.1875) -b 4096 -V -T "artist=%a" -T "title=%t" -T "album=%g" -T "date=%y" -T "tracknumber=%n" -T "genre=%m" %s --sector-align
TOC of the extracted CD
Track | Start | Length | Start sector | End sector
---------------------------------------------------------
1 | 0:00.00 | 4:16.37 | 0 | 19236
2 | 4:16.37 | 3:34.63 | 19237 | 35349
3 | 7:51.25 | 3:13.65 | 35350 | 49889
4 | 11:05.15 | 3:35.20 | 49890 | 66034
5 | 14:40.35 | 3:16.15 | 66035 | 80749
6 | 17:56.50 | 3:12.05 | 80750 | 95154
7 | 21:08.55 | 3:55.22 | 95155 | 112801
8 | 25:04.02 | 3:56.40 | 112802 | 130541
9 | 29:00.42 | 3:27.00 | 130542 | 146066
10 | 32:27.42 | 3:01.05 | 146067 | 159646
11 | 35:28.47 | 2:22.65 | 159647 | 170361
12 | 37:51.37 | 3:19.60 | 170362 | 185346
13 | 41:11.22 | 2:35.60 | 185347 | 197031
14 | 43:47.07 | 2:42.68 | 197032 | 209249
15 | 46:30.00 | 4:24.30 | 209250 | 229079
Range status and errors
Selected range
Filename D:\Torrents.ru 2\Ivan Lins\Ivan Lins - Um Novo Tempo\Ivan Lins - Um Novo Tempo.wav
Peak level 98.5 %
Range quality 100.0 %
Test CRC 2F4281B5
Copy CRC 2F4281B5
Copy OK
No errors occurred
AccurateRip summary
Track 1 accurately ripped (confidence 1) [9F34FB63]
Track 2 accurately ripped (confidence 1) [7FE8B5E8]
Track 3 accurately ripped (confidence 1) [5A3D10A4]
Track 4 accurately ripped (confidence 1) [74BB70C9]
Track 5 accurately ripped (confidence 1) [71BE2621]
Track 6 accurately ripped (confidence 1) [25A8A516]
Track 7 accurately ripped (confidence 1) [AEF158A1]
Track 8 accurately ripped (confidence 1) [772FD465]
Track 9 accurately ripped (confidence 1) [7CAAC17F]
Track 10 accurately ripped (confidence 1) [E1E77A7C]
Track 11 accurately ripped (confidence 1) [400C4B92]
Track 12 accurately ripped (confidence 1) [FDB17556]
Track 13 accurately ripped (confidence 1) [2F62560F]
Track 14 accurately ripped (confidence 1) [115ECE83]
Track 15 accurately ripped (confidence 1) [23784F04]
All tracks accurately ripped
End of status report
 
Audiochecker
AUDIOCHECKER v2.0 beta (build 457) - by Dester - opdester@freemail.hu
~~~~~~~~~~~~~~~~~~~~~~~~~~~~~~~~~~
-=== DO NOT EDIT THIS FILE! ===-
Path: ...\Ivan Lins - Um Novo Tempo
1 -=- Ivan Lins - Um Novo Tempo.flac -=- CDDA (100%)
217547620
 
Tau Analyzer


По всем вопросам пишите личное сообщение пользователю M0p94ok.
08:04
667
Нет комментариев. Ваш будет первым!