Поиск

(Cool, Hard Bop, Bossa Nova) [CD] Bud Shank & Clare Fischer - Bossa Nova Jazz Samba - 1962 (2013 Japan Edition), FLAC (image+.cue), lossless

(Cool, Hard Bop, Bossa Nova) [CD] Bud Shank & Clare Fischer - Bossa Nova Jazz Samba - 1962 (2013 Japan Edition), FLAC (image+.cue), lossless
Треклист:
Bud Shank & Clare Fischer - Bossa Nova Jazz Samba
Жанр: Cool, Hard Bop, Bossa Nova
Носитель: CD
Страна-производитель диска: Япония
Год издания: 2013
Издатель (лейбл): Pacific Jazz/Toshiba-EMI/Universal
Номер по каталогу: TOCJ-66627
Страна: США
Аудиокодек: FLAC (*.flac)
Тип рипа: image+.cue
Битрейт аудио: lossless
Продолжительность: 29:52
Источник (релизер): диск из моей коллекции
Наличие сканов в содержимом раздачи: да
Треклист:
01. Samba da Borboleta (Fischer) - 3:36
02. Illusao (Fischer) - 3:27
03. Pensativa (Fischer) - 3:32
04. Joao (Fischer) - 3:56
05. Misty (Garner) - 2:39
06. Que Mais? (Fischer) - 4:01
07. Wistful Samba (Fischer) - 4:19
08. Samba Guapo (Fischer) - 4:22
Состав:
Bud Shank - alto saxophone
Clare Fischer - piano
Ralph Pena - bass
Larry Bunker - vibes, drums
Bob Neel, Milt Holland, Frank Guerrero - percussion
Recorded at Pacific Jazz Studios, Hollywood, CA in September 1962.
 
Лог создания рипа
Exact Audio Copy V1.0 beta 3 from 29. August 2011
EAC extraction logfile from 26. February 2014, 18:31
Bud Shank & Clare Fischer / Bossa Nova Jazz Samba
Used drive : ASUS DRW-24B1LT Adapter: 5 ID: 1
Read mode : Secure
Utilize accurate stream : Yes
Defeat audio cache : Yes
Make use of C2 pointers : No
Read offset correction : 6
Overread into Lead-In and Lead-Out : No
Fill up missing offset samples with silence : Yes
Delete leading and trailing silent blocks : No
Null samples used in CRC calculations : Yes
Used interface : Native Win32 interface for Win NT & 2000
Used output format : User Defined Encoder
Selected bitrate : 768 kBit/s
Quality : High
Add ID3 tag : No
Command line compressor : C:\Program Files\Exact Audio Copy\Flac\flac.exe
Additional command line options : -8 -V -T "ARTIST=%artist%" -T "TITLE=%title%" -T "ALBUM=%albumtitle%" -T "DATE=%year%" -T "TRACKNUMBER=%tracknr%" -T "TOTALTRACKS=%numtracks%" -T "GENRE=%genre%" -T "ALBUMARTIST=%albumartist%" -T "ALBUM ARTIST=%albumartist%" -T "COMMENT=EAC Secure Mode, Test & Copy, AccurateRip, FLAC -8" %source%
TOC of the extracted CD
Track | Start | Length | Start sector | End sector
---------------------------------------------------------
1 | 0:00.00 | 3:35.62 | 0 | 16186
2 | 3:35.62 | 3:26.42 | 16187 | 31678
3 | 7:02.29 | 3:31.37 | 31679 | 47540
4 | 10:33.66 | 3:55.41 | 47541 | 65206
5 | 14:29.32 | 2:39.03 | 65207 | 77134
6 | 17:08.35 | 4:00.06 | 77135 | 95140
7 | 21:08.41 | 4:18.50 | 95141 | 114540
8 | 25:27.16 | 4:21.47 | 114541 | 134162
Range status and errors
Selected range
Filename F:\audio\Bud Shank & Clare Fischer - Bossa Nova Jazz Samba.wav
Peak level 100.0 %
Extraction speed 4.8 X
Range quality 99.9 %
Test CRC 05F8ADDC
Copy CRC 05F8ADDC
Copy OK
No errors occurred
AccurateRip summary
Track 1 not present in database
Track 2 not present in database
Track 3 not present in database
Track 4 not present in database
Track 5 not present in database
Track 6 not present in database
Track 7 not present in database
Track 8 not present in database
None of the tracks are present in the AccurateRip database
End of status report
---- CUETools DB Plugin V2.1.3
[CTDB TOCID: zEr0GT4pk0At7OFBfk6yKrZt9Is-] disk not present in database, Submit result: zEr0GT4pk0At7OFBfk6yKrZt9Is- has been uploaded
==== Log checksum 5377D0F96A37F3F69F2FB36753BB4F11BDCD0161C59BDC49850C8DEB4CA3115E ====
 
Содержание индексной карты (.CUE)
REM GENRE Jazz
REM DATE 1962
REM DISCID 5306FC08
REM COMMENT "ExactAudioCopy v1.0b3"
PERFORMER "Bud Shank & Clare Fischer"
TITLE "Bossa Nova Jazz Samba"
FILE "Bud Shank & Clare Fischer - Bossa Nova Jazz Samba.wav" WAVE
TRACK 01 AUDIO
TITLE "Samba da Borboleta"
PERFORMER "Bud Shank & Clare Fischer"
INDEX 01 00:00:00
TRACK 02 AUDIO
TITLE "Illusao"
PERFORMER "Bud Shank & Clare Fischer"
INDEX 00 03:33:34
INDEX 01 03:35:62
TRACK 03 AUDIO
TITLE "Pensativa"
PERFORMER "Bud Shank & Clare Fischer"
INDEX 00 07:00:01
INDEX 01 07:02:29
TRACK 04 AUDIO
TITLE "Joao"
PERFORMER "Bud Shank & Clare Fischer"
INDEX 00 10:31:38
INDEX 01 10:33:66
TRACK 05 AUDIO
TITLE "Misty"
PERFORMER "Bud Shank & Clare Fischer"
INDEX 00 14:27:04
INDEX 01 14:29:32
TRACK 06 AUDIO
TITLE "Que Mais?"
PERFORMER "Bud Shank & Clare Fischer"
INDEX 00 17:06:07
INDEX 01 17:08:35
TRACK 07 AUDIO
TITLE "Wistful Samba"
PERFORMER "Bud Shank & Clare Fischer"
INDEX 00 21:06:13
INDEX 01 21:08:41
TRACK 08 AUDIO
TITLE "Samba Guapo"
PERFORMER "Bud Shank & Clare Fischer"
INDEX 00 25:24:63
INDEX 01 25:27:16
 
Отчет CUETools
[CUETools log; Date: 26.02.2014 18:46:47; Version: 2.1.4]
[CTDB TOCID: zEr0GT4pk0At7OFBfk6yKrZt9Is-] found.
Track | CTDB Status
1 | (1/1) Accurately ripped
2 | (1/1) Accurately ripped
3 | (1/1) Accurately ripped
4 | (1/1) Accurately ripped
5 | (1/1) Accurately ripped
6 | (1/1) Accurately ripped
7 | (1/1) Accurately ripped
8 | (1/1) Accurately ripped
[AccurateRip ID: 0008dfda-003b738b-5306fc08] disk not present in database.
Track Peak [ CRC32 ] [W/O NULL] [ LOG ]
-- 100,0 [05F8ADDC] [204D339A] CRC32
01 98,3 [3125C597] [238EF7C5]
02 98,1 [E5AF32B6] [BAB41B82]
03 95,6 [75337D19] [C9EC7EDE]
04 97,3 [56467692] [59F13AD3]
05 97,0 [4F4B67BE] [88527072]
06 100,0 [F7BA2B9A] [640B135D]
07 97,2 [898421EE] [B5F93A80]
08 99,2 [E10E66DB] [BDD84322]
 
Об альбоме (сборнике)
A sublime little set all the way through – an early 60s date from the west coast scene – and one that was almost as important to that side of the country as the Verve bossa records were to New York! Bud Shank's in the lead on alto sax – no flute at all this time around – blowing sharp and soulfully, in a way that's even more deft than most of his other albums! But the equal star here is the young Clare Fischer – who plays piano in the group, and also contributed a host of original tunes to the set – fresh numbers that are way different than the usual "bossa-ized" standards, or American remakes of Brazilian classics. Ralph Pena is a key member of the group on bass – and Larry Bunker plays some vibes as well. Titles include "Joao", "Pensativa", "Samba Guapo", "Samba Da Borboleta", and "Que Mais?".
14:41
367
Нет комментариев. Ваш будет первым!