Поиск

(Italian Jazz, Contemporary Jazz, Label Bleu) [CD] Battista Lena (w/ Enrico Rava, Gabriele Mirabassi, Gianni Coscia, Enzo Pietropaoli, Marcello Di Leonardo) - Banda sonora - 1997, FLAC (tracks+.cue), lossless

(Italian Jazz, Contemporary Jazz, Label Bleu) [CD] Battista Lena (w/ Enrico Rava, Gabriele Mirabassi, Gianni Coscia, Enzo Pietropaoli, Marcello Di Leonardo) - Banda sonora - 1997, FLAC (tracks+.cue), lossless
Треклист:
Battista Lena / Banda sonora
Жанр: Italian Jazz, Contemporary Jazz, Label Bleu
Носитель: CD
Страна-производитель диска: France
Год издания: 1997
Издатель (лейбл): Label Bleu
Номер по каталогу: LBLC 6591 / HM 83
Аудиокодек: FLAC (*.flac)
Тип рипа: tracks+.cue
Битрейт аудио: lossless
Продолжительность: 42:33
Источник (релизер): я
Наличие сканов в содержимом раздачи: нет
Треклист:
1. Banda 8 (5:12)
2. Il grande cocomero (7:02)
3. Stabat Mom (4:19)
4. Roma ovest 643 (6:56)
5. Il valzer del povero (3:52)
6. Ferie diagosto (5:20)
7. Mermaid (2:34)
8. Valzers (4:55)
9. Tema di Pietro e Ghisola (2:24)
Compositions et arrangements de Battista Lena excepté « Il grande cocomero » de Battista Lena et Roberto Gatto, arrangements de Battista Lena.
Enregistré les 30 novembre et 1er décembre 1996 au théâtre Poliziano de Montepulciano (Italy).
Enrico Rava – trompette
Gabriele Mirabassi – clarinette
Gianni Coscia – accordéon
Battista Lena – guitare
Enzo Pietropaoli – contrebasse
Marcello Di Leonardo – batterie
Banda Buenaventura Somma di Chianciano Terme, directeur Paolo Scatena.
 
Лог создания рипа
Exact Audio Copy V1.0 beta 3 from 29. August 2011
EAC extraction logfile from 22. February 2014, 18:55
Battista Lena / Banda sonora
Used drive : SlimtypeeNAU508 5 Adapter: 1 ID: 0
Read mode : Secure
Utilize accurate stream : Yes
Defeat audio cache : Yes
Make use of C2 pointers : No
Read offset correction : 6
Overread into Lead-In and Lead-Out : No
Fill up missing offset samples with silence : Yes
Delete leading and trailing silent blocks : No
Null samples used in CRC calculations : Yes
Used interface : Native Win32 interface for Win NT & 2000
Gap handling : Appended to previous track
Used output format : User Defined Encoder
Selected bitrate : 768 kBit/s
Quality : High
Add ID3 tag : No
Command line compressor : C:\Program Files (x86)\Exact Audio Copy\Flac\flac.exe
Additional command line options : -8 -V -T "ARTIST=%artist%" -T "TITLE=%title%" -T "ALBUM=%albumtitle%" -T "DATE=%year%" -T "TRACKNUMBER=%tracknr%" -T "GENRE=%genre%" -T "PERFORMER=%albuminterpret%" -T "COMPOSER=%composer%" -T "ALBUMARTIST=%albumartist%" -T "DISCNUMBER=%cdnumber%" -T "TOTALDISCS=%totalcds%" -T "TOTALTRACKS=%numtracks%" -T "COMMENT=%comment%" %source% -o %dest%
TOC of the extracted CD
Track | Start | Length | Start sector | End sector
---------------------------------------------------------
1 | 0:00.32 | 5:12.00 | 32 | 23431
2 | 5:12.32 | 7:01.60 | 23432 | 55066
3 | 12:14.17 | 4:19.30 | 55067 | 74521
4 | 16:33.47 | 6:55.53 | 74522 | 105699
5 | 23:29.25 | 3:52.17 | 105700 | 123116
6 | 27:21.42 | 5:19.43 | 123117 | 147084
7 | 32:41.10 | 2:33.40 | 147085 | 158599
8 | 35:14.50 | 4:55.00 | 158600 | 180724
9 | 40:09.50 | 2:24.10 | 180725 | 191534
Track 1
Filename C:\EAC rips\01 - Banda 8.wav
Pre-gap length 0:00:02.32
Peak level 100.0 %
Extraction speed 1.1 X
Track quality 100.0 %
Test CRC 754A9A62
Copy CRC 754A9A62
Cannot be verified as accurate (confidence 6) [2B03878C], AccurateRip returned [6D3535BB] (AR v2)
Copy OK
Track 2
Filename C:\EAC rips\02 - Il grande cocomero.wav
Pre-gap length 0:00:04.07
Peak level 100.0 %
Extraction speed 1.3 X
Track quality 100.0 %
Test CRC F2728DEA
Copy CRC F2728DEA
Cannot be verified as accurate (confidence 6) [91E564D0], AccurateRip returned [9BF6E70B] (AR v2)
Copy OK
Track 3
Filename C:\EAC rips\03 - Stabat Mom.wav
Pre-gap length 0:00:03.60
Peak level 100.0 %
Extraction speed 1.4 X
Track quality 100.0 %
Test CRC BC5DE32D
Copy CRC BC5DE32D
Cannot be verified as accurate (confidence 6) [F9DCC666], AccurateRip returned [234CF114] (AR v2)
Copy OK
Track 4
Filename C:\EAC rips\04 - Roma ovest 643.wav
Pre-gap length 0:00:03.35
Peak level 100.0 %
Extraction speed 1.6 X
Track quality 100.0 %
Test CRC E7438C69
Copy CRC E7438C69
Cannot be verified as accurate (confidence 6) [6C536F92], AccurateRip returned [BD5FDC0C] (AR v2)
Copy OK
Track 5
Filename C:\EAC rips\05 - Il valzer del povero.wav
Pre-gap length 0:00:04.18
Peak level 100.0 %
Extraction speed 1.6 X
Track quality 100.0 %
Test CRC 7CD9B700
Copy CRC 7CD9B700
Cannot be verified as accurate (confidence 6) [643ECB4C], AccurateRip returned [030AD00C] (AR v2)
Copy OK
Track 6
Filename C:\EAC rips\06 - Ferie diagosto.wav
Pre-gap length 0:00:03.52
Peak level 100.0 %
Extraction speed 1.8 X
Track quality 100.0 %
Test CRC 10EBBB62
Copy CRC 10EBBB62
Cannot be verified as accurate (confidence 5) [B2024D1C], AccurateRip returned [4C916D53] (AR v2)
Copy OK
Track 7
Filename C:\EAC rips\07 - Mermaid.wav
Pre-gap length 0:00:03.60
Peak level 100.0 %
Extraction speed 1.6 X
Track quality 100.0 %
Test CRC A17B000D
Copy CRC A17B000D
Cannot be verified as accurate (confidence 6) [4AF0207D], AccurateRip returned [8AE7C60B] (AR v2)
Copy OK
Track 8
Filename C:\EAC rips\08 - Valzers.wav
Pre-gap length 0:00:03.30
Peak level 100.0 %
Extraction speed 1.9 X
Track quality 100.0 %
Test CRC AA440782
Copy CRC AA440782
Cannot be verified as accurate (confidence 6) [69A10AE6], AccurateRip returned [7BD149D6] (AR v2)
Copy OK
Track 9
Filename C:\EAC rips\09 - Tema di Pietro e Ghisola.wav
Pre-gap length 0:00:03.30
Peak level 94.7 %
Extraction speed 1.7 X
Track quality 100.0 %
Test CRC C984AF37
Copy CRC C984AF37
Cannot be verified as accurate (confidence 6) [023518B9], AccurateRip returned [CEF4A5AC] (AR v2)
Copy OK
No tracks could be verified as accurate
You may have a different pressing from the one(s) in the database
No errors occurred
End of status report
---- CUETools DB Plugin V2.1.4
[CTDB TOCID: eSX64oUITtnadmPSjDmF7otkxgQ-] disk not present in database
Submit result: eSX64oUITtnadmPSjDmF7otkxgQ- has been uploaded
==== Log checksum 5DA5E7BA462F4E1B8C75DFB108545C0219C3FBA72D2C3068EAEDB38DD850EB25 ====
 
Содержание индексной карты (.CUE)
REM GENRE Jazz
REM DATE 1997
REM DISCID 6B09F909
REM COMMENT "ExactAudioCopy v1.0b3"
PERFORMER "Battista Lena"
TITLE "Banda sonora"
FILE "01 - Banda 8.wav" WAVE
TRACK 01 AUDIO
TITLE "Banda 8"
PERFORMER "Battista Lena"
ISRC FR1F39600990
PREGAP 00:00:32
INDEX 01 00:00:00
TRACK 02 AUDIO
TITLE "Il grande cocomero"
PERFORMER "Battista Lena"
ISRC FR1F39600980
INDEX 00 05:07:68
FILE "02 - Il grande cocomero.wav" WAVE
INDEX 01 00:00:00
TRACK 03 AUDIO
TITLE "Stabat Mom"
PERFORMER "Battista Lena"
ISRC FR1F39600970
INDEX 00 06:58:00
FILE "03 - Stabat Mom.wav" WAVE
INDEX 01 00:00:00
TRACK 04 AUDIO
TITLE "Roma ovest 643"
PERFORMER "Battista Lena"
ISRC FR1F39600960
INDEX 00 04:15:70
FILE "04 - Roma ovest 643.wav" WAVE
INDEX 01 00:00:00
TRACK 05 AUDIO
TITLE "Il valzer del povero"
PERFORMER "Battista Lena"
ISRC FR1F39600950
INDEX 00 06:51:35
FILE "05 - Il valzer del povero.wav" WAVE
INDEX 01 00:00:00
TRACK 06 AUDIO
TITLE "Ferie diagosto"
PERFORMER "Battista Lena"
ISRC FR1F39600940
INDEX 00 03:48:40
FILE "06 - Ferie diagosto.wav" WAVE
INDEX 01 00:00:00
TRACK 07 AUDIO
TITLE "Mermaid"
PERFORMER "Battista Lena"
ISRC FR1F39600930
INDEX 00 05:15:58
FILE "07 - Mermaid.wav" WAVE
INDEX 01 00:00:00
TRACK 08 AUDIO
TITLE "Valzers"
PERFORMER "Battista Lena"
ISRC FR1F39600920
INDEX 00 02:30:10
FILE "08 - Valzers.wav" WAVE
INDEX 01 00:00:00
TRACK 09 AUDIO
TITLE "Tema di Pietro e Ghisola"
PERFORMER "Battista Lena"
ISRC FR1F39600910
INDEX 00 04:51:45
FILE "09 - Tema di Pietro e Ghisola.wav" WAVE
INDEX 01 00:00:00
 
CUETools
[CUETools log; Date: 22.02.2014 18:58:55; Version: 2.1.4]
Pregap length 00:00:32.
[CTDB TOCID: eSX64oUITtnadmPSjDmF7otkxgQ-] found.
Track | CTDB Status
1 | (1/1) Accurately ripped
2 | (1/1) Accurately ripped
3 | (1/1) Accurately ripped
4 | (1/1) Accurately ripped
5 | (1/1) Accurately ripped
6 | (1/1) Accurately ripped
7 | (1/1) Accurately ripped
8 | (1/1) Accurately ripped
9 | (1/1) Accurately ripped
[AccurateRip ID: 00102be7-00743c79-6b09f909] found.
Track [ CRC | V2 ] Status
01 [95c43ff5|2b03878c] (0+0/6) No match
02 [5145d50f|91e564d0] (0+0/6) No match
03 [cc2cff8a|f9dcc666] (0+0/6) No match
04 [b3a98460|6c536f92] (0+0/6) No match
05 [6736a27c|643ecb4c] (0+0/6) No match
06 [1a80bcc9|b2024d1c] (0+0/5) No match
07 [0d1ab1a7|4af0207d] (0+0/6) No match
08 [6694ec2a|69a10ae6] (0+0/6) No match
09 [eff00798|023518b9] (0+0/6) No match
Offsetted by -22:
01 [6d3535bb] (6/6) Accurately ripped
02 [9bf6e70b] (6/6) Accurately ripped
03 [234cf114] (6/6) Accurately ripped
04 [bd5fdc0c] (6/6) Accurately ripped
05 [030ad00c] (6/6) Accurately ripped
06 [4c916d53] (5/5) Accurately ripped
07 [8ae7c60b] (6/6) Accurately ripped
08 [7bd149d6] (6/6) Accurately ripped
09 [cef4a5ac] (6/6) Accurately ripped
Track Peak [ CRC32 ] [W/O NULL] [ LOG ]
-- 100.0 [CC894F0B] [AD54C15A]
01 100.0 [754A9A62] [465626DB] CRC32
02 100.0 [F2728DEA] [78ECE36C] CRC32
03 100.0 [BC5DE32D] [C03A7D08] CRC32
04 100.0 [E7438C69] [CCF4F3BF] CRC32
05 100.0 [7CD9B700] [F8DC3F2D] CRC32
06 100.0 [10EBBB62] [0423E20B] CRC32
07 100.0 [A17B000D] [BBB3B668] CRC32
08 100.0 [AA440782] [91FC96C4] CRC32
09 94.7 [C984AF37] [1E74BD45] CRC32
 
Состав
Banda Buenaventura Somma di Chianciano Terme, directeur Paolo Scatena :
Octavin :
Alberto Terrosi
Flûtes :
Etore Marroni
Cristina Della Giovanpaola
Emanuela Cioli
Francesca Labbrini
Valentina Giometti
Clarinettes en mi-bémol :
Linda Maglioni
Eugenio Fallarino
1ères clarinettes :
Luca Morgantini
Lucilla Angeli
Giacomo Ciacci
Romano Trabalzini

2èmes clarinettes :
Ugo Boncompagni
Renato Cencetti
Alessandro Cioli
Angela Cirillo
Linda Marabissi
Leonardo Marroni
Andrea Paolessi
Vasco Scaccini
Sara Trabalzini

Bugle :
Marco Canestrelli

1ères trompettes :
Fabrizio Massai
Massimo Pellegrini

2èmes trompettes :
Emanuele Maglioni
Damiano Falchi
Cristiano Sanchini
Saxophones en mi-bémol :
Dante Della Lena
Renato Vecchio
Igor Cappelli
Thomas Weithman
Saxophones ténor :
Mario Cirillo
Davide Biancolini
Saxophones baryton :
Attilio Pinzi
Rossano Emili

Trombone baryton :
Andrea Canapini

Trombone ténor :
Massimiliano Romiti
Cors :
Francesco Del Buono
Emanuele Pellegrini
Bugles en mi-bémol :
Fabio Brachi
Gianluca Andreucci

Trombones d’accompagnement :
Giancarlo Svetoni
Vinicio Palazzi

Tuba basse :
Franco Morbiducci
Percussions :
Rolando Morbiducci
Giordano Mencarelli
Andrea Cirillo
Massimo Rossi
14:41
480
Нет комментариев. Ваш будет первым!