Вы используете незарегистрированную версию компонента "Вкладки"!

Поиск

(Bossa Nova) [CD] Guitars Unlimited (w/ Jack Marshall, Howard Roberts, Laurindo Almeida, Shelly Manne, etc.) - Quiet Nights and Brazilian Guitars - 1966 (2013 Japan Edition), FLAC (image+.cue), lossless

(Bossa Nova) [CD] Guitars Unlimited (w/ Jack Marshall, Howard Roberts, Laurindo Almeida, Shelly Manne, etc.) - Quiet Nights and Brazilian Guitars - 1966 (2013 Japan Edition), FLAC (image+.cue), lossless
Треклист:
Guitars Unlimited - Quiet Nights and Brazilian Guitars
Жанр: Bossa Nova
Носитель: CD
Страна-производитель диска: Япония
Год издания: 2013
Издатель (лейбл): Capitol/Toshiba-EMI/Universal
Номер по каталогу: TOCJ-66622
Аудиокодек: FLAC (*.flac)
Тип рипа: image+.cue
Битрейт аудио: lossless
Продолжительность: 28:04
Источник (релизер): диск из моей коллекции
Наличие сканов в содержимом раздачи: да
Треклист:
01. The Girl from Ipanema (Jobim) - 2:44
02. Manha de Carnival (Theme from "Black Orpheus") (Bonfa) - 2:42
03. Meditation (Meditacao) (Jobim) - 3:06
04. Here Lies Love (Marshall-Mosher) - 2:26
05. Ho-Ba-La-La (Gilberto) - 2:18
06. Bim-Bom (Gilberto) - 2:23
07. Desafinado (Jobim) - 2:41
08. Quiet Nights of Quiet Stars (Corcovado) (Jobim) - 2:03
09. One Note Samba (Samba de Uma Nota So) (Jobim) - 2:34
10. These Are the Ways of Love (Marshall-Mosher) - 2:37
11. O Barquinho (Little Boat) (Menescal-Boscoli) - 2:32
Состав:
Jack Marshall - conductor, arranger, guitar (#2,5,7,11)
Howard Roberts, Bob Bain, Tony Rizzo, Al Hendrikson, Tommy Tedesco, Laurindo Almeida (#1,3,4,6,8-10) alternating with Rosinha de Valenca - guitar
Shelly Manne, Milton Holland - drums, percussion
Frank Flynn - bells (#1,3,4,6,8-10)
Joe Mondragon - bass
Produced by Jack Marshall and David Cavanaugh.
Recorded in 1966.
 
Лог создания рипа
Exact Audio Copy V1.0 beta 3 from 29. August 2011
EAC extraction logfile from 26. February 2014, 3:08
Guitars Unlimited / Quiet Nights and Brazilian Guitars
Used drive : ASUS DRW-24B1LT Adapter: 5 ID: 1
Read mode : Secure
Utilize accurate stream : Yes
Defeat audio cache : Yes
Make use of C2 pointers : No
Read offset correction : 6
Overread into Lead-In and Lead-Out : No
Fill up missing offset samples with silence : Yes
Delete leading and trailing silent blocks : No
Null samples used in CRC calculations : Yes
Used interface : Native Win32 interface for Win NT & 2000
Used output format : User Defined Encoder
Selected bitrate : 768 kBit/s
Quality : High
Add ID3 tag : No
Command line compressor : C:\Program Files\Exact Audio Copy\Flac\flac.exe
Additional command line options : -8 -V -T "ARTIST=%artist%" -T "TITLE=%title%" -T "ALBUM=%albumtitle%" -T "DATE=%year%" -T "TRACKNUMBER=%tracknr%" -T "TOTALTRACKS=%numtracks%" -T "GENRE=%genre%" -T "ALBUMARTIST=%albumartist%" -T "ALBUM ARTIST=%albumartist%" -T "COMMENT=EAC Secure Mode, Test & Copy, AccurateRip, FLAC -8" %source%
TOC of the extracted CD
Track | Start | Length | Start sector | End sector
---------------------------------------------------------
1 | 0:00.00 | 2:44.01 | 0 | 12300
2 | 2:44.01 | 2:41.66 | 12301 | 24441
3 | 5:25.67 | 3:05.62 | 24442 | 38378
4 | 8:31.54 | 2:25.40 | 38379 | 49293
5 | 10:57.19 | 2:17.47 | 49294 | 59615
6 | 13:14.66 | 2:22.58 | 59616 | 70323
7 | 15:37.49 | 2:41.28 | 70324 | 82426
8 | 18:19.02 | 2:02.53 | 82427 | 91629
9 | 20:21.55 | 2:33.62 | 91630 | 103166
10 | 22:55.42 | 2:37.02 | 103167 | 114943
11 | 25:32.44 | 2:31.45 | 114944 | 126313
Range status and errors
Selected range
Filename F:\audio\Guitars Unlimited - Quiet Nights and Brazilian Guitars.wav
Peak level 100.0 %
Extraction speed 4.9 X
Range quality 100.0 %
Test CRC 4790E688
Copy CRC 4790E688
Copy OK
No errors occurred
AccurateRip summary
Track 1 not present in database
Track 2 not present in database
Track 3 not present in database
Track 4 not present in database
Track 5 not present in database
Track 6 not present in database
Track 7 not present in database
Track 8 not present in database
Track 9 not present in database
Track 10 not present in database
Track 11 not present in database
None of the tracks are present in the AccurateRip database
End of status report
---- CUETools DB Plugin V2.1.3
[CTDB TOCID: mVbaMUf4boo5n995yhzqGqDhatk-] disk not present in database, Submit result: mVbaMUf4boo5n995yhzqGqDhatk- has been uploaded
==== Log checksum 07CCCB56FABAE09812921C8D52EB8483CFC046BB1960D11CD1EA96496EAC5301 ====
 
Содержание индексной карты (.CUE)
REM GENRE Jazz
REM DATE 1966
REM DISCID 8D06940B
REM COMMENT "ExactAudioCopy v1.0b3"
PERFORMER "Guitars Unlimited"
TITLE "Quiet Nights and Brazilian Guitars"
FILE "Guitars Unlimited - Quiet Nights and Brazilian Guitars.wav" WAVE
TRACK 01 AUDIO
TITLE "The Girl from Ipanema"
PERFORMER "Guitars Unlimited"
INDEX 01 00:00:00
TRACK 02 AUDIO
TITLE "Manha de Carnival (Theme from 'Black Orpheus')"
PERFORMER "Guitars Unlimited"
INDEX 00 02:41:48
INDEX 01 02:44:01
TRACK 03 AUDIO
TITLE "Meditation (Meditacao)"
PERFORMER "Guitars Unlimited"
INDEX 00 05:23:39
INDEX 01 05:25:67
TRACK 04 AUDIO
TITLE "Here Lies Love"
PERFORMER "Guitars Unlimited"
INDEX 00 08:29:26
INDEX 01 08:31:54
TRACK 05 AUDIO
TITLE "Ho-Ba-La-La"
PERFORMER "Guitars Unlimited"
INDEX 00 10:54:66
INDEX 01 10:57:19
TRACK 06 AUDIO
TITLE "Bim-Bom"
PERFORMER "Guitars Unlimited"
INDEX 00 13:12:38
INDEX 01 13:14:66
TRACK 07 AUDIO
TITLE "Desafinado"
PERFORMER "Guitars Unlimited"
INDEX 00 15:35:21
INDEX 01 15:37:49
TRACK 08 AUDIO
TITLE "Quiet Nights of Quiet Stars (Corcovado)"
PERFORMER "Guitars Unlimited"
INDEX 00 18:16:49
INDEX 01 18:19:02
TRACK 09 AUDIO
TITLE "One Note Samba (Samba de Uma Nota So)"
PERFORMER "Guitars Unlimited"
INDEX 00 20:19:27
INDEX 01 20:21:55
TRACK 10 AUDIO
TITLE "These Are the Ways of Love"
PERFORMER "Guitars Unlimited"
INDEX 00 22:53:14
INDEX 01 22:55:42
TRACK 11 AUDIO
TITLE "O Barquinho (Little Boat)"
PERFORMER "Guitars Unlimited"
INDEX 00 25:30:16
INDEX 01 25:32:44
 
Отчет CUETools
[CUETools log; Date: 26.02.2014 17:19:27; Version: 2.1.4]
[CTDB TOCID: mVbaMUf4boo5n995yhzqGqDhatk-] found.
Track | CTDB Status
1 | (1/1) Accurately ripped
2 | (1/1) Accurately ripped
3 | (1/1) Accurately ripped
4 | (1/1) Accurately ripped
5 | (1/1) Accurately ripped
6 | (1/1) Accurately ripped
7 | (1/1) Accurately ripped
8 | (1/1) Accurately ripped
9 | (1/1) Accurately ripped
10 | (1/1) Accurately ripped
11 | (1/1) Accurately ripped
[AccurateRip ID: 000bcae6-0065604b-8d06940b] found.
Track [ CRC | V2 ] Status
01 [e730a173|fd7d063c] (0+1/1) Accurately ripped
02 [fff31c28|d2c53b0d] (0+1/1) Accurately ripped
03 [2d75bf4f|c50a508e] (0+1/1) Accurately ripped
04 [c5b1ecda|4e8e26c1] (0+1/1) Accurately ripped
05 [4a322a39|e6a15d28] (0+1/1) Accurately ripped
06 [98b083f9|deb28eb7] (0+1/1) Accurately ripped
07 [a2a1807c|c117274e] (0+1/1) Accurately ripped
08 [d15d1835|6d4b1f74] (0+1/1) Accurately ripped
09 [6709b35c|d3265965] (0+1/1) Accurately ripped
10 [5e28fdb9|95d9fdf2] (0+1/1) Accurately ripped
11 [e4554603|586abe21] (0+1/1) Accurately ripped
Track Peak [ CRC32 ] [W/O NULL] [ LOG ]
-- 100,0 [4790E688] [AE2F2697] CRC32
01 93,5 [AA502E88] [4D452CDD]
02 91,1 [26E8DA6A] [5864B357]
03 92,0 [D59EAD71] [C2C37AE8]
04 84,4 [FFEF4509] [7C1932B0]
05 92,4 [45759CEE] [45ED6ACA]
06 96,3 [EF99B51D] [7FCA0DFB]
07 99,3 [8B186251] [7F1F0581]
08 91,0 [7D1C6F4F] [A362A1D7]
09 92,4 [F2E48763] [2581A83B]
10 100,0 [E4E4EB63] [53011B54]
11 96,3 [53DFC75E] [AF4F7115]
 
Review by Ted Mills
Yet another record of instrumental hits meant to cash in on the bossa nova craze, or L.A. session musicians at the top of their game? Certainly fans of Howard Roberts, once a recording artist for Verve, will not want to miss this one, as the cool guitarist lends solos to all but one of the tracks here, a usual assortment of Jobim and Gilberto tunes and soundalikes. No strings anywhere on the album, and arranger Jack Marshall keeps things light and lively. Easy to find in cut-out bins and certainly worth the dollar or two price.
 
Liner notes
A few short years ago the rich, subtle rhythms of Brazil's popular music swept north to dazzle the American musical scene with a tantalizing new sound. Today that sound has become a permanent part of our musical ways.
It is easy to see why, for Brazilian composers have a way of combining melody and rhythm in a meld that gives a feeling of romance to every note, an amorous message to every chord. And this is the spirit that Guitars Unlimited have captured in their first recording ... an album of contemporary moods styled for listening today! No violins, no brass, no reeds, only soft guitars and gentle rhythm ... and a program of romantic statements as welcome as spring's first sunlight.
The musicians who weave these inspired sounds are unmistakably among today's finest. And this, of course, explains much of the effortless grace and carefree zest heard in their harmonious blends and solo passages. The arrangements of Jack Marshall tell the rest of the story, for he has brought these artists together with a skillful hand and a gifted feeling for the magical beauty of this Brazilian music.
And together, Guitars Unlimited make a wonderful new kind of music that is the essence of romantic moods, quiet nights and Brazilian guitars.
Any questions - support@pro-jazz.com. Есть вопросы - support@pro-jazz.com
14:40
248
Нет комментариев. Ваш будет первым!