Поиск

(Contemporary Jazz/Free Jazz/Brass Trio) [CD] Journal Intime - Journal Intime - 2008, FLAC (tracks+.cue), lossless

(Contemporary Jazz/Free Jazz/Brass Trio) [CD] Journal Intime - Journal Intime - 2008, FLAC (tracks+.cue), lossless
Треклист:
Journal Intime - Journal Intime
Жанр: Contemporary Jazz/Free Jazz/Brass Trio
Страна-производитель диска: France
Год издания: 2008
Издатель (лейбл): Self Released
Страна исполнителя (группы): France
Аудиокодек: FLAC (*.flac)
Тип рипа: tracks+.cue
Битрейт аудио: lossless
Продолжительность: 47:36
Источник (релизер): Собственный CD
Наличие сканов в содержимом раздачи: да
Треклист:
01. Clairon Lutin 01:45
02. L'Autre Bulle 04:12
03. L'Horloge Du Genie 09:27
04. Braggin' Brass 04:58
05. Lester Fantasy 07:29
06. Bave & Transpiration 01:58
07. Leo 03:14
08. Captaine Guebe 05:08
09. Une Peur Cachee 06:52
10. Le Corail 02:27
 
Лог создания рипа
Exact Audio Copy V1.0 beta 3 from 29. August 2011
EAC extraction logfile from 21. October 2014, 10:52
Journal Intime / Journal Intime
Used drive : TSSTcorpCDDVDW SH-224BB Adapter: 2 ID: 0
Read mode : Secure
Utilize accurate stream : Yes
Defeat audio cache : Yes
Make use of C2 pointers : No
Read offset correction : 6
Overread into Lead-In and Lead-Out : No
Fill up missing offset samples with silence : Yes
Delete leading and trailing silent blocks : No
Null samples used in CRC calculations : Yes
Used interface : Native Win32 interface for Win NT & 2000
Gap handling : Appended to previous track
Used output format : User Defined Encoder
Selected bitrate : 128 kBit/s
Quality : High
Add ID3 tag : No
Command line compressor : C:\Program Files (x86)\Exact Audio Copy\Flac\flac.exe
Additional command line options : -V -8 -T "Genre=%genre%" -T "Artist=%artist%" -T "Title=%title%" -T "Album=%albumtitle%" -T "Date=%year%" -T "Tracknumber=%tracknr%" -T "Comment=%comment%" %source%
TOC of the extracted CD
Track | Start | Length | Start sector | End sector
---------------------------------------------------------
1 | 0:00.00 | 1:45.31 | 0 | 7905
2 | 1:45.31 | 4:12.28 | 7906 | 26833
3 | 5:57.59 | 9:27.74 | 26834 | 69432
4 | 15:25.58 | 4:58.72 | 69433 | 91854
5 | 20:24.55 | 7:29.54 | 91855 | 125583
6 | 27:54.34 | 1:58.21 | 125584 | 134454
7 | 29:52.55 | 3:14.37 | 134455 | 149041
8 | 33:07.17 | 5:08.09 | 149042 | 172150
9 | 38:15.26 | 6:52.73 | 172151 | 203123
10 | 45:08.24 | 2:27.71 | 203124 | 214219
Track 1
Filename D:\!Torrent upload\Journal Intime - Journal Intime (2008) [FLAC]\01. Clairon Lutin.wav
Pre-gap length 0:00:02.00
Peak level 97.7 %
Extraction speed 4.0 X
Track quality 100.0 %
Test CRC 96D74F3D
Copy CRC 96D74F3D
Cannot be verified as accurate (confidence 1) [FD4DA743], AccurateRip returned [586CC1CC] (AR v2)
Copy OK
Track 2
Filename D:\!Torrent upload\Journal Intime - Journal Intime (2008) [FLAC]\02. L'Autre Bulle.wav
Peak level 98.3 %
Extraction speed 5.1 X
Track quality 100.0 %
Test CRC A68A06AB
Copy CRC A68A06AB
Cannot be verified as accurate (confidence 1) [20530FC3], AccurateRip returned [87E3070A] (AR v2)
Copy OK
Track 3
Filename D:\!Torrent upload\Journal Intime - Journal Intime (2008) [FLAC]\03. L'Horloge Du Genie.wav
Peak level 99.2 %
Extraction speed 6.1 X
Track quality 100.0 %
Test CRC B758E71F
Copy CRC B758E71F
Cannot be verified as accurate (confidence 1) [BE749DB1], AccurateRip returned [18A80360] (AR v2)
Copy OK
Track 4
Filename D:\!Torrent upload\Journal Intime - Journal Intime (2008) [FLAC]\04. Braggin' In Brass.wav
Peak level 97.7 %
Extraction speed 6.5 X
Track quality 100.0 %
Test CRC 3E21DDEE
Copy CRC 3E21DDEE
Cannot be verified as accurate (confidence 1) [E197271D], AccurateRip returned [D737B76A] (AR v2)
Copy OK
Track 5
Filename D:\!Torrent upload\Journal Intime - Journal Intime (2008) [FLAC]\05. Lester Fantasy.wav
Peak level 97.7 %
Extraction speed 7.3 X
Track quality 100.0 %
Test CRC 5384EAB4
Copy CRC 5384EAB4
Cannot be verified as accurate (confidence 1) [EA409B40], AccurateRip returned [47F5AF51] (AR v2)
Copy OK
Track 6
Filename D:\!Torrent upload\Journal Intime - Journal Intime (2008) [FLAC]\06. Bave & Transpiration.wav
Peak level 38.8 %
Extraction speed 6.2 X
Track quality 100.0 %
Test CRC 754F9009
Copy CRC 754F9009
Cannot be verified as accurate (confidence 1) [C0EB7482], AccurateRip returned [DC493B2C] (AR v2)
Copy OK
Track 7
Filename D:\!Torrent upload\Journal Intime - Journal Intime (2008) [FLAC]\07. Leo.wav
Peak level 97.7 %
Extraction speed 6.9 X
Track quality 100.0 %
Test CRC 06A8CBAE
Copy CRC 06A8CBAE
Cannot be verified as accurate (confidence 1) [EB71F7BF], AccurateRip returned [D5C4A803] (AR v2)
Copy OK
Track 8
Filename D:\!Torrent upload\Journal Intime - Journal Intime (2008) [FLAC]\08. Captaine Guebe.wav
Peak level 97.7 %
Extraction speed 7.6 X
Track quality 100.0 %
Test CRC F574FDB3
Copy CRC F574FDB3
Cannot be verified as accurate (confidence 1) [FB4A924A], AccurateRip returned [AE238CE1] (AR v2)
Copy OK
Track 9
Filename D:\!Torrent upload\Journal Intime - Journal Intime (2008) [FLAC]\09. Une Peur Cachee.wav
Peak level 97.7 %
Extraction speed 7.6 X
Track quality 99.9 %
Test CRC 5C5022BB
Copy CRC 5C5022BB
Cannot be verified as accurate (confidence 1) [09CCAAC7], AccurateRip returned [B2FD47EA] (AR v2)
Copy OK
Track 10
Filename D:\!Torrent upload\Journal Intime - Journal Intime (2008) [FLAC]\10. Le Corail.wav
Peak level 97.7 %
Extraction speed 7.3 X
Track quality 100.0 %
Test CRC 2F7FF7D1
Copy CRC 2F7FF7D1
Cannot be verified as accurate (confidence 1) [C77B7853], AccurateRip returned [D086C2C4] (AR v2)
Copy OK
No tracks could be verified as accurate
You may have a different pressing from the one(s) in the database
No errors occurred
End of status report
==== Log checksum B6B4D8E4139E5C7A32DE1AA695D3D5E932C693D229D676BCA70CC8507306B861 ====
 
Содержание индексной карты (.CUE)
REM GENRE "Free Jazz"
REM DATE 2008
REM DISCID 9A0B280A
REM COMMENT "ExactAudioCopy v1.0b3"
PERFORMER "Journal Intime"
TITLE "Journal Intime"
FILE "01. Clairon Lutin.wav" WAVE
TRACK 01 AUDIO
TITLE "Clairon Lutin"
PERFORMER "Journal Intime"
FLAGS DCP
INDEX 01 00:00:00
FILE "02. L'Autre Bulle.wav" WAVE
TRACK 02 AUDIO
TITLE "L'Autre Bulle"
PERFORMER "Journal Intime"
FLAGS DCP
INDEX 01 00:00:00
FILE "03. L'Horloge Du Genie.wav" WAVE
TRACK 03 AUDIO
TITLE "L'Horloge Du Genie"
PERFORMER "Journal Intime"
FLAGS DCP
INDEX 01 00:00:00
FILE "04. Braggin' In Brass.wav" WAVE
TRACK 04 AUDIO
TITLE "Braggin' In Brass"
PERFORMER "Journal Intime"
FLAGS DCP
INDEX 01 00:00:00
FILE "05. Lester Fantasy.wav" WAVE
TRACK 05 AUDIO
TITLE "Lester Fantasy"
PERFORMER "Journal Intime"
FLAGS DCP
INDEX 01 00:00:00
FILE "06. Bave & Transpiration.wav" WAVE
TRACK 06 AUDIO
TITLE "Bave & Transpiration"
PERFORMER "Journal Intime"
FLAGS DCP
INDEX 01 00:00:00
FILE "07. Leo.wav" WAVE
TRACK 07 AUDIO
TITLE "Leo"
PERFORMER "Journal Intime"
FLAGS DCP
INDEX 01 00:00:00
FILE "08. Captaine Guebe.wav" WAVE
TRACK 08 AUDIO
TITLE "Captaine Guebe"
PERFORMER "Journal Intime"
FLAGS DCP
INDEX 01 00:00:00
FILE "09. Une Peur Cachee.wav" WAVE
TRACK 09 AUDIO
TITLE "Une Peur Cachee"
PERFORMER "Journal Intime"
FLAGS DCP
INDEX 01 00:00:00
FILE "10. Le Corail.wav" WAVE
TRACK 10 AUDIO
TITLE "Le Corail"
PERFORMER "Journal Intime"
FLAGS DCP
INDEX 01 00:00:00
 
Состав
Sylvain Bardiau / trumpet
Frederic Gastard / bass saxophone
Matthias Mahler / trombone
По всем вопросам пишите личное сообщение пользователю M0p94ok.
05:26
167
Нет комментариев. Ваш будет первым!