Поиск

(Contemporary Jazz/Avant-Garde Jazz) [CD] Journal Intime (feat. Marc Ducret, Vincent Peirani) - Extension des Feux - 2013, FLAC (tracks+.cue), lossless

(Contemporary Jazz/Avant-Garde Jazz) [CD] Journal Intime (feat. Marc Ducret, Vincent Peirani) - Extension des Feux - 2013, FLAC (tracks+.cue), lossless
Треклист:
Journal Intime - Extension des Feux
Жанр: Contemporary Jazz/Avant-Garde Jazz
Носитель: CD
Страна-производитель диска: Germany
Год издания: 2013
Издатель (лейбл): Neu Klang
Номер по каталогу: NCD4078
Страна исполнителя (группы): France
Аудиокодек: FLAC (*.flac)
Тип рипа: tracks+.cue
Битрейт аудио: lossless
Продолжительность: 53:50
Источник (релизер): Собственный CD
Наличие сканов в содержимом раздачи: да
Треклист:
Orage a Tonnerre
01. I 02:30
02. II 08:58
03. III 06:39
Chroid
04. I 05:15
05. II 06:11
06. III 06:54
Les 38 Lunes
07. I 09:28
08. II 07:53
 
Лог создания рипа
Exact Audio Copy V1.0 beta 3 from 29. August 2011
EAC extraction logfile from 21. October 2014, 11:14
Journal Intime / Extension des Feux
Used drive : TSSTcorpCDDVDW SH-224BB Adapter: 2 ID: 0
Read mode : Secure
Utilize accurate stream : Yes
Defeat audio cache : Yes
Make use of C2 pointers : No
Read offset correction : 6
Overread into Lead-In and Lead-Out : No
Fill up missing offset samples with silence : Yes
Delete leading and trailing silent blocks : No
Null samples used in CRC calculations : Yes
Used interface : Native Win32 interface for Win NT & 2000
Gap handling : Appended to previous track
Used output format : User Defined Encoder
Selected bitrate : 128 kBit/s
Quality : High
Add ID3 tag : No
Command line compressor : C:\Program Files (x86)\Exact Audio Copy\Flac\flac.exe
Additional command line options : -V -8 -T "Genre=%genre%" -T "Artist=%artist%" -T "Title=%title%" -T "Album=%albumtitle%" -T "Date=%year%" -T "Tracknumber=%tracknr%" -T "Comment=%comment%" %source%
TOC of the extracted CD
Track | Start | Length | Start sector | End sector
---------------------------------------------------------
1 | 0:00.00 | 2:30.33 | 0 | 11282
2 | 2:30.33 | 8:58.09 | 11283 | 51641
3 | 11:28.42 | 6:44.06 | 51642 | 81947
4 | 18:12.48 | 5:15.43 | 81948 | 105615
5 | 23:28.16 | 6:11.51 | 105616 | 133491
6 | 29:39.67 | 6:59.13 | 133492 | 164929
7 | 36:39.05 | 9:28.34 | 164930 | 207563
8 | 46:07.39 | 7:53.16 | 207564 | 243054
Track 1
Filename D:\!Torrent upload\Journal Intime - Extension des Feux (2013) [FLAC]\01. Orage a Tonnerre - I.wav
Pre-gap length 0:00:02.00
Peak level 51.5 %
Extraction speed 3.9 X
Track quality 100.0 %
Test CRC 98DE8398
Copy CRC 98DE8398
Accurately ripped (confidence 4) [E3EE2722] (AR v2)
Copy OK
Track 2
Filename D:\!Torrent upload\Journal Intime - Extension des Feux (2013) [FLAC]\02. Orage a Tonnerre - II.wav
Peak level 97.7 %
Extraction speed 5.3 X
Track quality 100.0 %
Test CRC 4574A1DB
Copy CRC 4574A1DB
Accurately ripped (confidence 4) [B94E070E] (AR v2)
Copy OK
Track 3
Filename D:\!Torrent upload\Journal Intime - Extension des Feux (2013) [FLAC]\03. Orage a Tonnerre - III.wav
Peak level 97.5 %
Extraction speed 6.0 X
Track quality 100.0 %
Test CRC 7A9DF4C9
Copy CRC 7A9DF4C9
Accurately ripped (confidence 4) [77BC5C67] (AR v2)
Copy OK
Track 4
Filename D:\!Torrent upload\Journal Intime - Extension des Feux (2013) [FLAC]\04. Chroid - I.wav
Pre-gap length 0:00:04.67
Peak level 97.7 %
Extraction speed 6.4 X
Track quality 100.0 %
Test CRC 63663B93
Copy CRC 63663B93
Accurately ripped (confidence 4) [0AE282C6] (AR v2)
Copy OK
Track 5
Filename D:\!Torrent upload\Journal Intime - Extension des Feux (2013) [FLAC]\05. Chroid - II.wav
Peak level 98.3 %
Extraction speed 7.0 X
Track quality 100.0 %
Test CRC 1EAB4C68
Copy CRC 1EAB4C68
Accurately ripped (confidence 4) [0DA7E468] (AR v2)
Copy OK
Track 6
Filename D:\!Torrent upload\Journal Intime - Extension des Feux (2013) [FLAC]\06. Chroid - III.wav
Peak level 98.6 %
Extraction speed 7.6 X
Track quality 100.0 %
Test CRC F9A0F8DA
Copy CRC F9A0F8DA
Accurately ripped (confidence 4) [47B216F6] (AR v2)
Copy OK
Track 7
Filename D:\!Torrent upload\Journal Intime - Extension des Feux (2013) [FLAC]\07. Les 38 Lunes - I.wav
Pre-gap length 0:00:04.66
Peak level 98.6 %
Extraction speed 8.3 X
Track quality 100.0 %
Test CRC 3C422509
Copy CRC 3C422509
Accurately ripped (confidence 4) [EB76AB33] (AR v2)
Copy OK
Track 8
Filename D:\!Torrent upload\Journal Intime - Extension des Feux (2013) [FLAC]\08. Les 38 Lunes - II.wav
Peak level 78.4 %
Extraction speed 8.8 X
Track quality 100.0 %
Test CRC B3A6501C
Copy CRC B3A6501C
Accurately ripped (confidence 4) [0D5FB774] (AR v2)
Copy OK
All tracks accurately ripped
No errors occurred
End of status report
==== Log checksum 4F65B428074BD3E8BDCA44FFAD7D854985A986268CADBB194308F93BB488A052 ====
 
Содержание индексной карты (.CUE)
REM GENRE "Free Jazz"
REM DATE 2013
REM DISCID 5B0CA808
REM COMMENT "ExactAudioCopy v1.0b3"
PERFORMER "Journal Intime"
TITLE "Extension des Feux"
FILE "01. Orage a Tonnerre - I.wav" WAVE
TRACK 01 AUDIO
TITLE "Orage a Tonnerre - I"
PERFORMER "Journal Intime"
FLAGS DCP
INDEX 01 00:00:00
FILE "02. Orage a Tonnerre - II.wav" WAVE
TRACK 02 AUDIO
TITLE "Orage a Tonnerre - II"
PERFORMER "Journal Intime"
FLAGS DCP
INDEX 01 00:00:00
FILE "03. Orage a Tonnerre - III.wav" WAVE
TRACK 03 AUDIO
TITLE "Orage a Tonnerre - III"
PERFORMER "Journal Intime"
FLAGS DCP
INDEX 01 00:00:00
TRACK 04 AUDIO
TITLE "Chroid - I"
PERFORMER "Journal Intime"
FLAGS DCP
INDEX 00 06:39:14
FILE "04. Chroid - I.wav" WAVE
INDEX 01 00:00:00
FILE "05. Chroid - II.wav" WAVE
TRACK 05 AUDIO
TITLE "Chroid - II"
PERFORMER "Journal Intime"
FLAGS DCP
INDEX 01 00:00:00
FILE "06. Chroid - III.wav" WAVE
TRACK 06 AUDIO
TITLE "Chroid - III"
PERFORMER "Journal Intime"
FLAGS DCP
INDEX 01 00:00:00
TRACK 07 AUDIO
TITLE "Les 38 Lunes - I"
PERFORMER "Journal Intime"
FLAGS DCP
INDEX 00 06:54:22
FILE "07. Les 38 Lunes - I.wav" WAVE
INDEX 01 00:00:00
FILE "08. Les 38 Lunes - II.wav" WAVE
TRACK 08 AUDIO
TITLE "Les 38 Lunes - II"
PERFORMER "Journal Intime"
FLAGS DCP
INDEX 01 00:00:00
 
Состав
Sylvain Bardiau / trumpet
Frederic Gastard / bass saxophone
Matthias Mahler / trombone
Guests:
Marc Ducret / guitar
Vincent Peirani / accordion
По всем вопросам пишите личное сообщение пользователю M0p94ok.
05:26
190
Нет комментариев. Ваш будет первым!