Вы используете незарегистрированную версию компонента "Вкладки"!

Поиск

(Free Improvisation, Avant-Garde Jazz) [CD] Here & Here & Here (Michael Vlatkovich, Jeff Kaiser, Anna Homler, Scott Walton, Rich West) - Here & Here & Here - 2014, FLAC (tracks+.cue), lossless

(Free Improvisation, Avant-Garde Jazz) [CD] Here & Here & Here (Michael Vlatkovich, Jeff Kaiser, Anna Homler, Scott Walton, Rich West) - Here & Here & Here - 2014, FLAC (tracks+.cue), lossless
Треклист:
Here & Here & Here
Жанр: Free Improvisation, Avant-Garde Jazz
Страна-производитель диска: USA
Год издания: 2014
Издатель (лейбл): pfMentum
Номер по каталогу: CD084
Аудиокодек: FLAC (*.flac)
Тип рипа: tracks+.cue
Битрейт аудио: lossless
Продолжительность: 55:52
Источник (релизер): спасибо Nostalgiastic
Наличие сканов в содержимом раздачи: нет
Треклист:
01. Dragon Beware
02. Here & Here & Here
03. Red Coda Soft
04. Before but After
05. Spark
06. Big Doors Little Windows
07. Oranger Than Happiness
08. Round Triangles
09. Your Ark Is Waiting
10. Three in Front Four in Back Toes
11. Salute
12. Choir hose 293
13. Pfazzu
14. Thunderous Silence
15. Pontozo
 
Лог создания рипа
Exact Audio Copy V1.0 beta 3 from 29. August 2011
EAC extraction logfile from 28. September 2014, 22:00
Here & Here & Here / Here & Here & Here
Used drive : hp BD ROM BC-5550H Adapter: 1 ID: 0
Read mode : Secure
Utilize accurate stream : Yes
Defeat audio cache : Yes
Make use of C2 pointers : No
Read offset correction : 48
Overread into Lead-In and Lead-Out : No
Fill up missing offset samples with silence : Yes
Delete leading and trailing silent blocks : No
Null samples used in CRC calculations : Yes
Used interface : Native Win32 interface for Win NT & 2000
Gap handling : Appended to previous track
Used output format : User Defined Encoder
Selected bitrate : 1024 kBit/s
Quality : High
Add ID3 tag : No
Command line compressor : C:\Program Files (x86)\Exact Audio Copy\FLAC\FLAC.EXE
Additional command line options : -8 -V -T "ARTIST=%artist%" -T "TITLE=%title%" -T "ALBUM=%albumtitle%" -T "DATE=%year%" -T "TRACKNUMBER=%tracknr%" -T "GENRE=%genre%" -T "COMMENT=%comment%" -T "BAND=%albuminterpret%" -T "ALBUMARTIST=%albuminterpret%" -T "COMPOSER=%composer%" %haslyrics%--tag-from-file=LYRICS="%lyricsfile%"%haslyrics% -T "DISCNUMBER=%cdnumber%" -T "TOTALDISCS=%totalcds%" -T "TOTALTRACKS=%numtracks%" %hascover%--picture="%coverfile%"%hascover% %source% -o %dest%
TOC of the extracted CD
Track | Start | Length | Start sector | End sector
---------------------------------------------------------
1 | 0:00.00 | 2:50.08 | 0 | 12757
2 | 2:50.08 | 7:31.31 | 12758 | 46613
3 | 10:21.39 | 8:23.56 | 46614 | 84394
4 | 18:45.20 | 2:11.48 | 84395 | 94267
5 | 20:56.68 | 5:23.07 | 94268 | 118499
6 | 26:20.00 | 3:51.63 | 118500 | 135887
7 | 30:11.63 | 3:12.53 | 135888 | 150340
8 | 33:24.41 | 3:44.29 | 150341 | 167169
9 | 37:08.70 | 2:41.58 | 167170 | 179302
10 | 39:50.53 | 2:43.55 | 179303 | 191582
11 | 42:34.33 | 1:43.47 | 191583 | 199354
12 | 44:18.05 | 3:05.28 | 199355 | 213257
13 | 47:23.33 | 2:51.28 | 213258 | 226110
14 | 50:14.61 | 3:36.17 | 226111 | 242327
15 | 53:51.03 | 2:43.61 | 242328 | 254613
Track 1
Filename C:\EAC Music and Logs\Here & Here & Here (2014) - FLAC\01 - Dragon Beware.wav
Pre-gap length 0:00:02.00
Peak level 96.6 %
Extraction speed 9.8 X
Track quality 100.0 %
Test CRC 7355FDB1
Copy CRC 7355FDB1
Track not present in AccurateRip database
Copy OK
Track 2
Filename C:\EAC Music and Logs\Here & Here & Here (2014) - FLAC\02 - Here & Here & Here.wav
Pre-gap length 0:00:03.00
Peak level 96.6 %
Extraction speed 11.8 X
Track quality 100.0 %
Test CRC D544EE6C
Copy CRC D544EE6C
Track not present in AccurateRip database
Copy OK
Track 3
Filename C:\EAC Music and Logs\Here & Here & Here (2014) - FLAC\03 - Red Coda Soft.wav
Pre-gap length 0:00:03.00
Peak level 96.6 %
Extraction speed 13.6 X
Track quality 100.0 %
Test CRC B99EE39A
Copy CRC B99EE39A
Track not present in AccurateRip database
Copy OK
Track 4
Filename C:\EAC Music and Logs\Here & Here & Here (2014) - FLAC\04 - Before but After.wav
Pre-gap length 0:00:03.00
Peak level 54.6 %
Extraction speed 13.5 X
Track quality 100.0 %
Test CRC 82A93FF4
Copy CRC 82A93FF4
Track not present in AccurateRip database
Copy OK
Track 5
Filename C:\EAC Music and Logs\Here & Here & Here (2014) - FLAC\05 - Spark.wav
Pre-gap length 0:00:03.00
Peak level 96.6 %
Extraction speed 15.2 X
Track quality 100.0 %
Test CRC 50FFC06B
Copy CRC 50FFC06B
Track not present in AccurateRip database
Copy OK
Track 6
Filename C:\EAC Music and Logs\Here & Here & Here (2014) - FLAC\06 - Big Doors Little Windows.wav
Pre-gap length 0:00:03.00
Peak level 96.6 %
Extraction speed 15.7 X
Track quality 100.0 %
Test CRC 791E3B43
Copy CRC 791E3B43
Track not present in AccurateRip database
Copy OK
Track 7
Filename C:\EAC Music and Logs\Here & Here & Here (2014) - FLAC\07 - Oranger Than Happiness.wav
Pre-gap length 0:00:03.00
Peak level 96.6 %
Extraction speed 15.9 X
Track quality 100.0 %
Test CRC AFBA4982
Copy CRC AFBA4982
Track not present in AccurateRip database
Copy OK
Track 8
Filename C:\EAC Music and Logs\Here & Here & Here (2014) - FLAC\08 - Round Triangles.wav
Pre-gap length 0:00:03.00
Peak level 96.6 %
Extraction speed 16.6 X
Track quality 100.0 %
Test CRC CA1CC6D2
Copy CRC CA1CC6D2
Track not present in AccurateRip database
Copy OK
Track 9
Filename C:\EAC Music and Logs\Here & Here & Here (2014) - FLAC\09 - Your Ark Is Waiting.wav
Pre-gap length 0:00:03.00
Peak level 96.6 %
Extraction speed 16.3 X
Track quality 100.0 %
Test CRC 7A3C4F1F
Copy CRC 7A3C4F1F
Track not present in AccurateRip database
Copy OK
Track 10
Filename C:\EAC Music and Logs\Here & Here & Here (2014) - FLAC\10 - Three in Front Four in Back Toes.wav
Pre-gap length 0:00:03.00
Peak level 96.6 %
Extraction speed 16.8 X
Track quality 100.0 %
Test CRC 9B3B8CC0
Copy CRC 9B3B8CC0
Track not present in AccurateRip database
Copy OK
Track 11
Filename C:\EAC Music and Logs\Here & Here & Here (2014) - FLAC\11 - Salute.wav
Pre-gap length 0:00:03.00
Peak level 96.6 %
Extraction speed 15.9 X
Track quality 100.0 %
Test CRC 46D65F91
Copy CRC 46D65F91
Track not present in AccurateRip database
Copy OK
Track 12
Filename C:\EAC Music and Logs\Here & Here & Here (2014) - FLAC\12 - Choir hose 293.wav
Pre-gap length 0:00:03.00
Peak level 96.6 %
Extraction speed 17.6 X
Track quality 100.0 %
Test CRC F804A37E
Copy CRC F804A37E
Track not present in AccurateRip database
Copy OK
Track 13
Filename C:\EAC Music and Logs\Here & Here & Here (2014) - FLAC\13 - Pfazzu.wav
Pre-gap length 0:00:03.00
Peak level 71.1 %
Extraction speed 17.7 X
Track quality 100.0 %
Test CRC 03B7F5B4
Copy CRC 03B7F5B4
Track not present in AccurateRip database
Copy OK
Track 14
Filename C:\EAC Music and Logs\Here & Here & Here (2014) - FLAC\14 - Thunderous Silence.wav
Pre-gap length 0:00:03.00
Peak level 96.6 %
Extraction speed 18.6 X
Track quality 100.0 %
Test CRC B90FE8D2
Copy CRC B90FE8D2
Track not present in AccurateRip database
Copy OK
Track 15
Filename C:\EAC Music and Logs\Here & Here & Here (2014) - FLAC\15 - Pontozo.wav
Pre-gap length 0:00:03.00
Peak level 96.5 %
Extraction speed 18.6 X
Track quality 100.0 %
Test CRC 936731B6
Copy CRC 936731B6
Track not present in AccurateRip database
Copy OK
None of the tracks are present in the AccurateRip database
No errors occurred
End of status report
==== Log checksum 579A819CAAC7D4AD1BAC222B731FE51B0F5C7A6B99A8BA95534BE18D5D49E2B4 ====
 
Содержание индексной карты (.CUE)
REM DATE 2014
REM DISCID B60D420F
REM COMMENT "ExactAudioCopy v1.0b3"
PERFORMER "Here & Here & Here"
TITLE "Here & Here & Here"
FILE "01 - Dragon Beware.wav" WAVE
TRACK 01 AUDIO
TITLE "Dragon Beware"
PERFORMER "Here & Here & Here"
FLAGS DCP
INDEX 01 00:00:00
TRACK 02 AUDIO
TITLE "Here & Here & Here"
PERFORMER "Here & Here & Here"
FLAGS DCP
INDEX 00 02:47:08
FILE "02 - Here & Here & Here.wav" WAVE
INDEX 01 00:00:00
TRACK 03 AUDIO
TITLE "Red Coda Soft"
PERFORMER "Here & Here & Here"
FLAGS DCP
INDEX 00 07:28:31
FILE "03 - Red Coda Soft.wav" WAVE
INDEX 01 00:00:00
TRACK 04 AUDIO
TITLE "Before but After"
PERFORMER "Here & Here & Here"
FLAGS DCP
INDEX 00 08:20:56
FILE "04 - Before but After.wav" WAVE
INDEX 01 00:00:00
TRACK 05 AUDIO
TITLE "Spark"
PERFORMER "Here & Here & Here"
FLAGS DCP
INDEX 00 02:08:48
FILE "05 - Spark.wav" WAVE
INDEX 01 00:00:00
TRACK 06 AUDIO
TITLE "Big Doors Little Windows"
PERFORMER "Here & Here & Here"
FLAGS DCP
INDEX 00 05:20:07
FILE "06 - Big Doors Little Windows.wav" WAVE
INDEX 01 00:00:00
TRACK 07 AUDIO
TITLE "Oranger Than Happiness"
PERFORMER "Here & Here & Here"
FLAGS DCP
INDEX 00 03:48:63
FILE "07 - Oranger Than Happiness.wav" WAVE
INDEX 01 00:00:00
TRACK 08 AUDIO
TITLE "Round Triangles"
PERFORMER "Here & Here & Here"
FLAGS DCP
INDEX 00 03:09:53
FILE "08 - Round Triangles.wav" WAVE
INDEX 01 00:00:00
TRACK 09 AUDIO
TITLE "Your Ark Is Waiting"
PERFORMER "Here & Here & Here"
FLAGS DCP
INDEX 00 03:41:29
FILE "09 - Your Ark Is Waiting.wav" WAVE
INDEX 01 00:00:00
TRACK 10 AUDIO
TITLE "Three in Front Four in Back Toes"
PERFORMER "Here & Here & Here"
FLAGS DCP
INDEX 00 02:38:58
FILE "10 - Three in Front Four in Back Toes.wav" WAVE
INDEX 01 00:00:00
TRACK 11 AUDIO
TITLE "Salute"
PERFORMER "Here & Here & Here"
FLAGS DCP
INDEX 00 02:40:55
FILE "11 - Salute.wav" WAVE
INDEX 01 00:00:00
TRACK 12 AUDIO
TITLE "Choir hose 293"
PERFORMER "Here & Here & Here"
FLAGS DCP
INDEX 00 01:40:47
FILE "12 - Choir hose 293.wav" WAVE
INDEX 01 00:00:00
TRACK 13 AUDIO
TITLE "Pfazzu"
PERFORMER "Here & Here & Here"
FLAGS DCP
INDEX 00 03:02:28
FILE "13 - Pfazzu.wav" WAVE
INDEX 01 00:00:00
TRACK 14 AUDIO
TITLE "Thunderous Silence"
PERFORMER "Here & Here & Here"
FLAGS DCP
INDEX 00 02:48:28
FILE "14 - Thunderous Silence.wav" WAVE
INDEX 01 00:00:00
TRACK 15 AUDIO
TITLE "Pontozo"
PERFORMER "Here & Here & Here"
FLAGS DCP
INDEX 00 03:33:17
FILE "15 - Pontozo.wav" WAVE
INDEX 01 00:00:00
 
Состав
Michael Vlatkovich - trombone, percussion
Jeff Kaiser - trumpet, flugelhorn
Anna Homler - vocal, percussion
Scott Walton - acoustic bass
Rich West - drums, percussion
По всем вопросам пишите личное сообщение пользователю M0p94ok.
05:27
169
Нет комментариев. Ваш будет первым!