Вы используете незарегистрированную версию компонента "Вкладки"!

Поиск

(Avant-Garde Jazz/ACT) [CD] Emile Parisien Quartet - Spezial Snack - 2014, FLAC (tracks+.cue), lossless

(Avant-Garde Jazz/ACT) [CD] Emile Parisien Quartet - Spezial Snack - 2014, FLAC (tracks+.cue), lossless
Треклист:
Emile Parisien Quartet - Spezial Snack
Жанр: Avant-Garde Jazz
Носитель: CD
Страна-производитель диска: Germany
Год издания: 2014
Издатель (лейбл): ACT
Номер по каталогу: ACT 9575-2
Страна исполнителя (группы): France
Аудиокодек: FLAC (*.flac)
Тип рипа: tracks+.cue
Битрейт аудио: lossless
Продолжительность: 46:39
Источник (релизер): Собственный CD
Наличие сканов в содержимом раздачи: да
Треклист:
01. Potofen (Parisien, Emile) 09:36
02. Haricot Guide (Darrifourcq, Sylvain) 10:23
03. Mazout Damnation (Touéry, Julien) 12:02
04. Les Flics de la Police (Darrifourcq, Siyvain) 08:00
05. François (Gélugne, Ivan) 06:36
 
Лог создания рипа
Exact Audio Copy V1.0 beta 3 from 29. August 2011
EAC extraction logfile from 21. October 2014, 10:26
Emile Parisien Quartet / Spezial Snack
Used drive : TSSTcorpCDDVDW SH-224BB Adapter: 2 ID: 0
Read mode : Secure
Utilize accurate stream : Yes
Defeat audio cache : Yes
Make use of C2 pointers : No
Read offset correction : 6
Overread into Lead-In and Lead-Out : No
Fill up missing offset samples with silence : Yes
Delete leading and trailing silent blocks : No
Null samples used in CRC calculations : Yes
Used interface : Native Win32 interface for Win NT & 2000
Gap handling : Appended to previous track
Used output format : User Defined Encoder
Selected bitrate : 128 kBit/s
Quality : High
Add ID3 tag : No
Command line compressor : C:\Program Files (x86)\Exact Audio Copy\Flac\flac.exe
Additional command line options : -V -8 -T "Genre=%genre%" -T "Artist=%artist%" -T "Title=%title%" -T "Album=%albumtitle%" -T "Date=%year%" -T "Tracknumber=%tracknr%" -T "Comment=%comment%" %source%
TOC of the extracted CD
Track | Start | Length | Start sector | End sector
---------------------------------------------------------
1 | 0:00.00 | 9:36.35 | 0 | 43234
2 | 9:36.35 | 10:23.17 | 43235 | 89976
3 | 19:59.52 | 12:02.30 | 89977 | 144156
4 | 32:02.07 | 8:00.57 | 144157 | 180213
5 | 40:02.64 | 6:36.32 | 180214 | 209945
Track 1
Filename D:\!Torrent upload\Emile Parisien Quartet - Spezial Snack [FLAC]\01. Potofen.wav
Pre-gap length 0:00:02.00
Peak level 100.0 %
Extraction speed 4.9 X
Track quality 100.0 %
Test CRC 8011FD30
Copy CRC 8011FD30
Track not present in AccurateRip database
Copy OK
Track 2
Filename D:\!Torrent upload\Emile Parisien Quartet - Spezial Snack [FLAC]\02. Haricot Guide.wav
Peak level 100.0 %
Extraction speed 6.1 X
Track quality 100.0 %
Test CRC 794F7747
Copy CRC 794F7747
Track not present in AccurateRip database
Copy OK
Track 3
Filename D:\!Torrent upload\Emile Parisien Quartet - Spezial Snack [FLAC]\03. Mazout Damnation.wav
Peak level 99.0 %
Extraction speed 6.9 X
Track quality 99.9 %
Test CRC B4549206
Copy CRC B4549206
Track not present in AccurateRip database
Copy OK
Track 4
Filename D:\!Torrent upload\Emile Parisien Quartet - Spezial Snack [FLAC]\04. Les Flics de la Police.wav
Peak level 97.3 %
Extraction speed 7.6 X
Track quality 100.0 %
Test CRC EF336854
Copy CRC EF336854
Track not present in AccurateRip database
Copy OK
Track 5
Filename D:\!Torrent upload\Emile Parisien Quartet - Spezial Snack [FLAC]\05. Francois.wav
Peak level 98.9 %
Extraction speed 7.4 X
Track quality 99.9 %
Test CRC 002893BE
Copy CRC 002893BE
Track not present in AccurateRip database
Copy OK
None of the tracks are present in the AccurateRip database
No errors occurred
End of status report
==== Log checksum 77A720A80E22409A7F58031F0E56F0CA0BDE0C438E5D60578615212FF68ECC28 ====
 
Содержание индексной карты (.CUE)
REM GENRE "Avant-Garde Jazz"
REM DATE 2014
REM DISCID 340AEF05
REM COMMENT "ExactAudioCopy v1.0b3"
PERFORMER "Emile Parisien Quartet"
TITLE "Spezial Snack"
FILE "01. Potofen.wav" WAVE
TRACK 01 AUDIO
TITLE "Potofen"
PERFORMER "Emile Parisien Quartet"
INDEX 01 00:00:00
FILE "02. Haricot Guide.wav" WAVE
TRACK 02 AUDIO
TITLE "Haricot Guide"
PERFORMER "Emile Parisien Quartet"
INDEX 01 00:00:00
FILE "03. Mazout Damnation.wav" WAVE
TRACK 03 AUDIO
TITLE "Mazout Damnation"
PERFORMER "Emile Parisien Quartet"
INDEX 01 00:00:00
FILE "04. Les Flics de la Police.wav" WAVE
TRACK 04 AUDIO
TITLE "Les Flics de la Police"
PERFORMER "Emile Parisien Quartet"
INDEX 01 00:00:00
FILE "05. Francois.wav" WAVE
TRACK 05 AUDIO
TITLE "Francois"
PERFORMER "Emile Parisien Quartet"
INDEX 01 00:00:00
 
Состав
Emile Parisien / soprano & tenor sax
Julien Touéry / piano & prepared piano
Ivan Gélugne / bass
Sylvain Darrifourcq / drums, percussion, zither
По всем вопросам пишите личное сообщение пользователю M0p94ok.
05:25
187
Нет комментариев. Ваш будет первым!