Вы используете незарегистрированную версию компонента "Вкладки"!

Поиск

(Contemporary Jazz/Creative) Bert Van Den Brink Trio - Between us (live at the bimhuis) - 2004, APE (image+.cue), lossless

Треклист:
Bert Van Den Brink Trio / Between us (live at the bimhuis)
Жанр: Contemporary Jazz/Creative
Страна-производитель диска: Austria
Год издания: 2004
Издатель (лейбл): Challenge Jazz
Аудиокодек: APE (*.ape)
Тип рипа: image+.cue
Битрейт аудио: lossless
Продолжительность: 00:55:33
Источник (релизер): yocto
Наличие сканов в содержимом раздачи: да
Треклист:
1. Between Us [6:48]
2. Naima [8:48]
3. Valse Cliche [8:22]
4. Landscapes [6:27]
5. Sound Check [7:08]
6. Anchors Aweigh: I fall in love too easily [10:45]
7. For Horace [7:16]
 
Лог создания рипа
Exact Audio Copy V1.0 beta 2 from 29. April 2011
EAC extraction logfile from 9. June 2012, 20:47
Bert Van Den Brink / Between us
Used drive : HL-DT-STDVDRAM GSA-T40N Adapter: 1 ID: 0
Read mode : Secure
Utilize accurate stream : Yes
Defeat audio cache : Yes
Make use of C2 pointers : No
Read offset correction : 667
Overread into Lead-In and Lead-Out : No
Fill up missing offset samples with silence : Yes
Delete leading and trailing silent blocks : No
Null samples used in CRC calculations : Yes
Used interface : Native Win32 interface for Win NT & 2000
Used output format : Monkey's Audio Lossless Encoder
Selected bitrate : Normal Lossless Compression
Quality : High
Add ID3 tag : No
Command line compressor : C:\Program Files\Monkey's Audio\MAC.exe
Additional command line options : %tracknr% %artist% %title% %albumtitle% %year% %genre% %albumcomposer% %albumartist% %numtracks%
TOC of the extracted CD
Track | Start | Length | Start sector | End sector
---------------------------------------------------------
1 | 0:00.00 | 6:48.16 | 0 | 30615
2 | 6:48.16 | 8:48.31 | 30616 | 70246
3 | 15:36.47 | 8:22.62 | 70247 | 107958
4 | 23:59.34 | 6:27.30 | 107959 | 137013
5 | 30:26.64 | 7:08.33 | 137014 | 169146
6 | 37:35.22 | 10:45.32 | 169147 | 217553
7 | 48:20.54 | 7:18.74 | 217554 | 250477
Range status and errors
Selected range
Filename D:\Bert Van Den Brink - Between us.wav
Peak level 67.3 %
Extraction speed 4.1 X
Range quality 100.0 %
Test CRC D5CC48F2
Copy CRC D5CC48F2
Copy OK
No errors occurred
End of status report
==== Log checksum 160B58C759EC757F07DDA93883B2D6E4FC10C0A1AF6F97B2B70EF8386008FE44 ====
 
Содержание индексной карты (.CUE)
REM GENRE Jazz
REM DATE 2004
REM DISCID 550D0B07
REM COMMENT "ExactAudioCopy v1.0b2"
PERFORMER "Bert Van Den Brink"
TITLE "Between us"
FILE "Bert Van Den Brink - Between us.ape" WAVE
TRACK 01 AUDIO
TITLE "Between us"
PERFORMER "Bert Van Den Brink"
INDEX 01 00:00:00
TRACK 02 AUDIO
TITLE "Naima"
PERFORMER "Bert Van Den Brink"
INDEX 01 06:48:16
TRACK 03 AUDIO
TITLE "Valse clichee"
PERFORMER "Bert Van Den Brink"
INDEX 01 15:36:47
TRACK 04 AUDIO
TITLE "Landscapes"
PERFORMER "Bert Van Den Brink"
INDEX 01 23:59:34
TRACK 05 AUDIO
TITLE "sound check"
PERFORMER "Bert Van Den Brink"
INDEX 01 30:26:64
TRACK 06 AUDIO
TITLE "I fall in love too easily"
PERFORMER "Bert Van Den Brink"
INDEX 01 37:35:22
TRACK 07 AUDIO
TITLE "For Horace"
PERFORMER "Bert Van Den Brink"
INDEX 01 48:20:54
По всем вопросам пишите личное сообщение пользователю M0p94ok.
01:39
113
Нет комментариев. Ваш будет первым!