Вы используете незарегистрированную версию компонента "Вкладки"!

Поиск

(Avant-Garde/Free Jazz) Hera (Waclaw Zimpel, Ksawery Wojcinski, Pawel Postaremczak, Pavel Szpura) - 2 альбома - (2010) Hera, (2011) Where My Complete Beloved Is, FLAC (tracks+.cue), lossless

Треклист:
HERA (Waclaw Zimpel, Ksawery Wojcinski, Pawel Postaremczak, Pavel Szpura) - 2 альбома
Жанр: Avant-Garde/Free Jazz
Страна-производитель диска: Польша
Год издания: 2010-2011
Издатель (лейбл): Multikulti Project
Номер по каталогу: MPI012, MPI016
Страна: Польша
Аудиокодек: FLAC (*.flac)
Тип рипа: tracks+.cue
Битрейт аудио: lossless
Продолжительность: 01:56:45
Источник (релизер): Собственные CD
Наличие сканов в содержимом раздачи: да
Трэклист:
2010 - Hera
1. Monreale (12:03)
2. Cefalu (9:07)
3. Napoli-Palermo (11:19)
4. Segesta (5:44)
5. Sometimes I Feel Like A Motherless Child (13:26)
2011 - Where My Complete Beloved Is
1. In that place there is no happiness or unhappines (18:27)
2. No truth or untruth (20:07)
3. Neither sin or virtue (19:21)
4. There is no day or night, no moon or sun (07:08)

 
2010 - Hera

Общее время звучания: 51:41
 
Лог создания рипа
Exact Audio Copy V1.0 beta 3 from 29. August 2011
EAC extraction logfile from 29. October 2011, 20:21
Hera / Hera
Used drive : Optiarc DVD RW AD-5200A Adapter: 0 ID: 0
Read mode : Secure
Utilize accurate stream : Yes
Defeat audio cache : Yes
Make use of C2 pointers : No
Read offset correction : 48
Overread into Lead-In and Lead-Out : No
Fill up missing offset samples with silence : Yes
Delete leading and trailing silent blocks : No
Null samples used in CRC calculations : Yes
Used interface : Native Win32 interface for Win NT & 2000
Gap handling : Appended to previous track
Used output format : User Defined Encoder
Selected bitrate : 128 kBit/s
Quality : High
Add ID3 tag : No
Command line compressor : C:\Program Files (x86)\Exact Audio Copy\Flac\flac.exe
Additional command line options : -V -8 -T "Genre=%genre%" -T "Artist=%artist%" -T "Title=%title%" -T "Album=%albumtitle%" -T "Date=%year%" -T "Tracknumber=%tracknr%" -T "Comment=%comment%" %source%
TOC of the extracted CD
Track | Start | Length | Start sector | End sector
---------------------------------------------------------
1 | 0:00.00 | 12:06.10 | 0 | 54459
2 | 12:06.10 | 9:09.04 | 54460 | 95638
3 | 21:15.14 | 11:14.16 | 95639 | 146204
4 | 32:29.30 | 5:46.51 | 146205 | 172205
5 | 38:16.06 | 13:25.55 | 172206 | 232635
Track 1
Filename D:\MUSIC\Avant-garde\Vaslav Zimpel\Hera - Hera (2010)\01 - Monreale.wav
Pre-gap length 0:00:02.00
Peak level 97.7 %
Extraction speed 3.1 X
Track quality 100.0 %
Test CRC 411CBDAA
Copy CRC 411CBDAA
Copy OK
Track 2
Filename D:\MUSIC\Avant-garde\Vaslav Zimpel\Hera - Hera (2010)\02 - Cefalu.wav
Pre-gap length 0:00:02.67
Peak level 97.7 %
Extraction speed 3.6 X
Track quality 100.0 %
Test CRC 9579B3AC
Copy CRC 9579B3AC
Copy OK
Track 3
Filename D:\MUSIC\Avant-garde\Vaslav Zimpel\Hera - Hera (2010)\03 - Napoli - Palermo.wav
Pre-gap length 0:00:01.32
Peak level 97.7 %
Extraction speed 4.1 X
Track quality 100.0 %
Test CRC B14BC85C
Copy CRC B14BC85C
Copy OK
Track 4
Filename D:\MUSIC\Avant-garde\Vaslav Zimpel\Hera - Hera (2010)\04 - Segesta.wav
Pre-gap length 0:00:01.47
Peak level 97.7 %
Extraction speed 4.3 X
Track quality 100.0 %
Test CRC D3EC3C62
Copy CRC D3EC3C62
Copy OK
Track 5
Filename D:\MUSIC\Avant-garde\Vaslav Zimpel\Hera - Hera (2010)\05 - Sometimes I feel like a motherless child.wav
Pre-gap length 0:00:01.03
Peak level 97.7 %
Extraction speed 4.8 X
Track quality 99.9 %
Test CRC 8D3EAC62
Copy CRC 8D3EAC62
Copy OK
No errors occurred
End of status report
==== Log checksum 59C63CF3C996A3F5F11E0FACA7A26133CA6FEC53E2B2B5988E9E1FA0E1A55C57 ====
 
Содержание индексной карты (.CUE)
REM GENRE "Free Jazz"
REM DATE 2010
REM DISCID 490C1D05
REM COMMENT "ExactAudioCopy v1.0b3"
PERFORMER "Hera"
TITLE "Hera"
FILE "01 - Monreale.wav" WAVE
TRACK 01 AUDIO
TITLE "Monreale"
PERFORMER "Hera"
INDEX 01 00:00:00
TRACK 02 AUDIO
TITLE "Cefalu"
PERFORMER "Hera"
INDEX 00 12:03:18
FILE "02 - Cefalu.wav" WAVE
INDEX 01 00:00:00
TRACK 03 AUDIO
TITLE "Napoli - Palermo"
PERFORMER "Hera"
INDEX 00 09:07:47
FILE "03 - Napoli - Palermo.wav" WAVE
INDEX 01 00:00:00
TRACK 04 AUDIO
TITLE "Segesta"
PERFORMER "Hera"
INDEX 00 11:12:44
FILE "04 - Segesta.wav" WAVE
INDEX 01 00:00:00
TRACK 05 AUDIO
TITLE "Sometimes I feel like a motherless child"
PERFORMER "Hera"
INDEX 00 05:45:48
FILE "05 - Sometimes I feel like a motherless child.wav" WAVE
INDEX 01 00:00:00
 
2011 - Where My Complete Beloved Is

Общее время звучания: 01:05:03
 
Лог создания рипа
Exact Audio Copy V1.0 beta 3 from 29. August 2011
EAC extraction logfile from 25. December 2011, 19:49
Hera / Where My Complete Beloved Is
Used drive : Optiarc DVD RW AD-5200A Adapter: 0 ID: 0
Read mode : Secure
Utilize accurate stream : Yes
Defeat audio cache : Yes
Make use of C2 pointers : No
Read offset correction : 48
Overread into Lead-In and Lead-Out : No
Fill up missing offset samples with silence : Yes
Delete leading and trailing silent blocks : No
Null samples used in CRC calculations : Yes
Used interface : Native Win32 interface for Win NT & 2000
Gap handling : Appended to previous track
Used output format : User Defined Encoder
Selected bitrate : 128 kBit/s
Quality : High
Add ID3 tag : No
Command line compressor : C:\Program Files (x86)\Exact Audio Copy\Flac\flac.exe
Additional command line options : -V -8 -T "Genre=%genre%" -T "Artist=%artist%" -T "Title=%title%" -T "Album=%albumtitle%" -T "Date=%year%" -T "Tracknumber=%tracknr%" -T "Comment=%comment%" %source%
TOC of the extracted CD
Track | Start | Length | Start sector | End sector
---------------------------------------------------------
1 | 0:00.00 | 18:27.07 | 0 | 83031
2 | 18:27.07 | 20:07.26 | 83032 | 173582
3 | 38:34.33 | 19:21.03 | 173583 | 260660
4 | 57:55.36 | 7:08.18 | 260661 | 292778
Track 1
Filename D:\MUSIC\Avant-garde\Waclaw Zimpel\Hera\2011 - Where My Complete Beloved Is\01 - In that place there is no happiness or unhappiness.wav
Pre-gap length 0:00:02.00
Peak level 98.8 %
Extraction speed 3.0 X
Track quality 100.0 %
Test CRC 46E4244E
Copy CRC 46E4244E
Track not present in AccurateRip database
Copy OK
Track 2
Filename D:\MUSIC\Avant-garde\Waclaw Zimpel\Hera\2011 - Where My Complete Beloved Is\02 - No truth or untruth.wav
Peak level 98.8 %
Extraction speed 4.1 X
Track quality 100.0 %
Test CRC C3156364
Copy CRC C3156364
Track not present in AccurateRip database
Copy OK
Track 3
Filename D:\MUSIC\Avant-garde\Waclaw Zimpel\Hera\2011 - Where My Complete Beloved Is\03 - Neither sin or virtue.wav
Peak level 98.8 %
Extraction speed 4.9 X
Track quality 100.0 %
Test CRC C837D36F
Copy CRC C837D36F
Track not present in AccurateRip database
Copy OK
Track 4
Filename D:\MUSIC\Avant-garde\Waclaw Zimpel\Hera\2011 - Where My Complete Beloved Is\04 - There is no day or night, no moon or sun.wav
Peak level 98.8 %
Extraction speed 5.0 X
Track quality 100.0 %
Test CRC C234715E
Copy CRC C234715E
Track not present in AccurateRip database
Copy OK
None of the tracks are present in the AccurateRip database
No errors occurred
End of status report
==== Log checksum 8C39EF116963DDA53BE07102E1D2575FBB97D2EFA17744CC6E3F4AE6ECE1FBB9 ====
 
Содержание индексной карты (.CUE)
REM GENRE "Free Jazz"
REM DATE 2011
REM DISCID 2E0F3F04
REM COMMENT "ExactAudioCopy v1.0b3"
PERFORMER "Hera"
TITLE "Where My Complete Beloved Is"
FILE "01 - In that place there is no happiness or unhappiness.wav" WAVE
TRACK 01 AUDIO
TITLE "In that place there is no happiness or unhappiness"
PERFORMER "Hera"
INDEX 01 00:00:00
FILE "02 - No truth or untruth.wav" WAVE
TRACK 02 AUDIO
TITLE "No truth or untruth"
PERFORMER "Hera"
INDEX 01 00:00:00
FILE "03 - Neither sin or virtue.wav" WAVE
TRACK 03 AUDIO
TITLE "Neither sin or virtue"
PERFORMER "Hera"
INDEX 01 00:00:00
FILE "04 - There is no day or night, no moon or sun.wav" WAVE
TRACK 04 AUDIO
TITLE "There is no day or night, no moon or sun"
PERFORMER "Hera"
INDEX 01 00:00:00


 
Состав
Вацлав Зимпель - кларнет, бас-кларнет, тарогато, фуяра, гармоника
Ксаверий Войтински - контрабас, виолончель
Павел Пастаремчук - сопрано и тенор саксофон, фуяра, препарированное фортепиано
Павел Шпура - ударные
Any questions -> support@pro-jazz.com. По всем вопросам пишите -> support@pro-jazz.com
01:38
135
Нет комментариев. Ваш будет первым!